<?xml version="1.0" standalone="no"?>
<!DOCTYPE svg PUBLIC "-//W3C//DTD SVG 1.1//EN" "http://www.w3.org/Graphics/SVG/1.1/DTD/svg11.dtd" >
<svg xmlns="http://www.w3.org/2000/svg" xmlns:xlink="http://www.w3.org/1999/xlink" version="1.1">
<metadata>
Created by FontForge 20160405 at Mon Jul  1 07:46:39 2019
 By www-data
Copyright (c) 2018, Owen Earl,,,
</metadata>
<defs>
<font id="Jost-Semi" horiz-adv-x="603" >
  <font-face 
    font-family="Jost* 600 Semi"
    font-weight="600"
    font-stretch="normal"
    units-per-em="1000"
    panose-1="0 0 0 0 0 0 0 0 0 0"
    ascent="800"
    descent="-200"
    x-height="460"
    cap-height="700"
    bbox="-148 -361 1709 1042"
    underline-thickness="50"
    underline-position="-175"
    unicode-range="U+0020-FF19"
  />
<missing-glyph horiz-adv-x="364" 
d="M33 0v666h265v-666h-265zM66 33h199v600h-199v-600z" />
    <glyph glyph-name=".notdef" horiz-adv-x="364" 
d="M33 0v666h265v-666h-265zM66 33h199v600h-199v-600z" />
    <glyph glyph-name=".null" horiz-adv-x="0" 
 />
    <glyph glyph-name="nonmarkingreturn" horiz-adv-x="333" 
 />
    <glyph glyph-name="uni0020" unicode=" " horiz-adv-x="300" 
 />
    <glyph glyph-name="exclam" unicode="!" horiz-adv-x="330" 
d="M83 56q0 -33 23.5 -55.5t59.5 -22.5t59 22.5t23 55.5t-23 54.5t-59 21.5t-59.5 -21.5t-23.5 -54.5zM84 700l29 -478h104l29 478h-162z" />
    <glyph glyph-name="quotedbl" unicode="&#x22;" horiz-adv-x="502" 
d="M314 700l-46 -314h87l101 314h-142zM112 700l-46 -314h86l102 314h-142z" />
    <glyph glyph-name="uni0023" unicode="#" horiz-adv-x="648" 
d="M236 700l-43 -176h-118v-104h93l-33 -136h-100v-104h75l-44 -180h115l43 180h117l-43 -180h114l44 180h118v104h-93l33 136h100v104h-75l43 176h-114l-42 -176h-119l44 176h-115zM370 280h-127l36 144h126z" />
    <glyph glyph-name="uni0024" unicode="$" horiz-adv-x="608" 
d="M446 496l110 66q-24 47 -69 88.5t-120 54.5l3 113h-109l3 -112q-55 -8 -96.5 -34t-65 -64t-23.5 -82q0 -50 18.5 -86t47.5 -60.5t61 -40.5t58 -26q41 -15 75 -30.5t54.5 -37t20.5 -54.5q0 -39 -23 -61t-73 -22q-58 0 -98.5 35t-75.5 101l-104 -72q29 -66 88.5 -115
t135.5 -63l-3 -106h109l-2 105q93 12 145.5 64t52.5 137q0 61 -26 103t-67 68.5t-85 42.5q-42 16 -79 31t-59.5 35t-22.5 52q0 33 21.5 53t67.5 20q45 0 76.5 -29.5t53.5 -73.5z" />
    <glyph glyph-name="percent" unicode="%" horiz-adv-x="868" 
d="M624 700l-511 -700h131l512 700h-132zM592 161q0 30 19.5 52.5t51.5 22.5t51.5 -22.5t19.5 -52.5t-19.5 -52.5t-51.5 -22.5t-51.5 22.5t-19.5 52.5zM484 161q0 -49 23 -89t63.5 -64t92.5 -24t92.5 24t63.5 64t23 89t-23 89t-63.5 64t-92.5 24t-92.5 -24t-63.5 -64
t-23 -89zM134 539q0 30 20 52.5t52 22.5t51.5 -22.5t19.5 -52.5t-19.5 -52.5t-51.5 -22.5t-52 22.5t-20 52.5zM26 539q0 -49 23.5 -89t64 -64t92.5 -24t92.5 24t64 64t23.5 89t-23.5 89.5t-64 64.5t-92.5 24t-92.5 -24t-64 -64.5t-23.5 -89.5z" />
    <glyph glyph-name="uni0026" unicode="&#x26;" horiz-adv-x="729" 
d="M315 439q-26 29 -44.5 52.5t-18.5 48.5q0 29 18 49t54 20q33 0 53 -20t20 -49q0 -50 -82 -101zM589 136q31 32 57.5 65.5t49.5 66.5l-90 66q-21 -31 -43.5 -60.5t-47.5 -55.5l-137 150q68 45 104 84.5t36 97.5q0 42 -22.5 80t-65.5 62t-104 24q-62 0 -107.5 -23
t-70 -61.5t-24.5 -83.5q0 -32 13.5 -60t33.5 -52t40 -47q-38 -17 -78 -42t-66.5 -64t-26.5 -97q0 -62 33 -106.5t87 -68t118 -23.5q65 0 121 20.5t105 54.5l57 -63h151zM430 145q-32 -22 -66.5 -34t-69.5 -12q-54 0 -86 28t-32 70q0 44 31.5 70t71.5 46z" />
    <glyph glyph-name="uni0027" unicode="'" horiz-adv-x="299" 
d="M112 700l-46 -314h86l102 314h-142z" />
    <glyph glyph-name="uni0028" unicode="(" horiz-adv-x="331" 
d="M194 780q-60 -112 -90 -237t-30 -253q0 -127 30 -252t90 -238h119q-52 113 -79.5 238t-27.5 252q0 128 27.5 253t79.5 237h-119z" />
    <glyph glyph-name="parenright" unicode=")" horiz-adv-x="331" 
d="M138 -200q60 113 89.5 238t29.5 252q0 128 -29.5 253t-89.5 237h-119q53 -112 80 -237t27 -253q0 -127 -27 -252t-80 -238h119z" />
    <glyph glyph-name="uni002A" unicode="*" horiz-adv-x="592" 
d="M236 700l19 -168l-153 70l-37 -112l166 -35l-115 -124l97 -69l83 146l83 -146l97 69l-115 124l166 35l-37 112l-153 -70l19 168h-120z" />
    <glyph glyph-name="uni002B" unicode="+" horiz-adv-x="656" 
d="M260 528v-200h-195v-126h195v-200h136v200h196v126h-196v200h-136z" />
    <glyph glyph-name="uni002C" unicode="," horiz-adv-x="318" 
d="M128 110l-88 -259l98 -23l121 250z" />
    <glyph glyph-name="hyphen" unicode="-" horiz-adv-x="218" 
d="M5 180h209v114h-209v-114z" />
    <glyph glyph-name="uni002E" unicode="." horiz-adv-x="315" 
d="M76 60q0 -33 23 -57.5t59 -24.5t59 24.5t23 57.5t-23 56.5t-59 23.5t-59 -23.5t-23 -56.5z" />
    <glyph glyph-name="uni002F" unicode="/" horiz-adv-x="580" 
d="M440 700l-425 -850h131l420 850h-126z" />
    <glyph glyph-name="uni0030" unicode="0" horiz-adv-x="643" 
d="M40 350q0 -111 35.5 -192t99 -125.5t147.5 -44.5q86 0 149.5 44.5t98 125.5t34.5 192t-34.5 192.5t-98 125.5t-149.5 44q-84 0 -147.5 -44t-99 -125.5t-35.5 -192.5zM180 350q0 71 17.5 124t49.5 82.5t75 29.5t75 -29.5t49.5 -82.5t17.5 -124q0 -70 -17.5 -123.5
t-49.5 -83t-75 -29.5t-75 29.5t-49.5 83t-17.5 123.5z" />
    <glyph glyph-name="one" unicode="1" horiz-adv-x="491" 
d="M72 517l168 43v-560h139v712l-307 -66v-129z" />
    <glyph glyph-name="uni0032" unicode="2" horiz-adv-x="630" 
d="M20 0h564v132h-292l180 170q44 40 72 87t28 102q0 39 -15.5 78.5t-46 72t-77.5 52t-110 19.5q-85 0 -145 -35.5t-91 -96t-31 -135.5h142q0 63 34 102t88 39q53 0 77.5 -31t24.5 -68q0 -42 -22 -77.5t-62 -78.5z" />
    <glyph glyph-name="uni0033" unicode="3" horiz-adv-x="598" 
d="M308 -14q79 0 136.5 26t88.5 72t31 106q0 70 -37.5 113t-102.5 64q55 22 87.5 61t32.5 92t-27 96.5t-78.5 69.5t-124.5 26q-70 0 -122 -27t-81 -74t-29 -107h133q0 39 28.5 64.5t70.5 25.5q44 0 65.5 -23t21.5 -59q0 -41 -35.5 -71.5t-97.5 -30.5v-22v-48v-28
q74 0 113.5 -29t39.5 -79q0 -49 -30.5 -74t-78.5 -25t-83 27.5t-35 78.5h-142q0 -60 30.5 -111t88 -82.5t137.5 -31.5z" />
    <glyph glyph-name="uni0034" unicode="4" horiz-adv-x="663" 
d="M16 129h350v-129h149v129h110v123h-110v448h-99zM380 237h-166l166 234v-234z" />
    <glyph glyph-name="uni0035" unicode="5" horiz-adv-x="620" 
d="M580 226q0 72 -29 123.5t-77 79.5t-105 28q-30 0 -58.5 -3t-54.5 -14l34 134h280v126h-382l-96 -395q53 30 101 40t91 10q37 0 69 -13.5t52 -39.5t20 -64q0 -57 -37 -87.5t-104 -30.5q-45 0 -93.5 24.5t-84.5 63.5l-68 -112q45 -43 109.5 -75.5t161.5 -32.5q51 0 99 14
t87 43.5t62 74.5t23 106z" />
    <glyph glyph-name="uni0036" unicode="6" horiz-adv-x="641" 
d="M332 698l-212 -278q-30 -37 -50 -81.5t-20 -97.5q0 -82 36.5 -139t98 -86.5t136.5 -29.5t136.5 29.5t98 86.5t36.5 139q0 69 -31 120.5t-80 79.5t-103 28q-19 0 -36 -2.5t-32 -8.5l204 240h-182zM192 241q0 59 37 96t92 37q56 0 92.5 -37t36.5 -96q0 -58 -36.5 -94.5
t-92.5 -36.5q-55 0 -92 36.5t-37 94.5z" />
    <glyph glyph-name="seven" unicode="7" horiz-adv-x="579" 
d="M30 566h335l-280 -566h155l336 700h-546v-134z" />
    <glyph glyph-name="uni0038" unicode="8" horiz-adv-x="602" 
d="M195 211q0 29 15 53t39.5 38t52.5 14t52 -14t39 -38t15 -53q0 -51 -32 -78.5t-74 -27.5t-74.5 27.5t-32.5 78.5zM214 516q0 39 24.5 64.5t63.5 25.5t63.5 -25.5t24.5 -64.5t-25.5 -63.5t-62.5 -24.5t-62.5 24.5t-25.5 63.5zM78 531q0 -58 29.5 -98t75.5 -62
q-54 -22 -92 -66.5t-38 -114.5q0 -61 34.5 -107t91 -71.5t123.5 -25.5t123.5 25.5t90.5 71.5t34 107q0 70 -37.5 114.5t-91.5 66.5q46 22 75 62t29 98q0 56 -30 97t-80.5 63.5t-112.5 22.5t-113 -22.5t-81 -63.5t-30 -97z" />
    <glyph glyph-name="uni0039" unicode="9" horiz-adv-x="641" 
d="M309 2l212 278q30 38 50.5 82.5t20.5 96.5q0 82 -36.5 139t-98 86.5t-136.5 29.5t-136.5 -29.5t-98 -86.5t-36.5 -139q0 -69 31 -120t80.5 -79.5t102.5 -28.5q20 0 36 2t30 8l-203 -239h182zM450 459q0 -58 -36.5 -95.5t-92.5 -37.5q-55 0 -92 37.5t-37 95.5q0 59 37 95
t92 36q56 0 92.5 -36t36.5 -95z" />
    <glyph glyph-name="colon" unicode=":" horiz-adv-x="315" 
d="M76 436q0 -33 23 -57.5t59 -24.5t59 24.5t23 57.5t-23 56.5t-59 23.5t-59 -23.5t-23 -56.5zM76 60q0 -33 23 -57.5t59 -24.5t59 24.5t23 57.5t-23 56.5t-59 23.5t-59 -23.5t-23 -56.5z" />
    <glyph glyph-name="semicolon" unicode=";" horiz-adv-x="374" 
d="M144 110l-88 -259l97 -23l121 250zM120 431q0 -33 23.5 -57t59.5 -24t59.5 24t23.5 57t-23.5 57t-59.5 24t-59.5 -24t-23.5 -57z" />
    <glyph glyph-name="uni003C" unicode="&#x3c;" horiz-adv-x="640" 
d="M255 266l320 126v128l-510 -216v-84l510 -216v128z" />
    <glyph glyph-name="equal" unicode="=" horiz-adv-x="622" 
d="M58 290h506v115h-506v-115zM58 101h506v114h-506v-114z" />
    <glyph glyph-name="uni003E" unicode="&#x3e;" horiz-adv-x="640" 
d="M385 258l-320 -126v-128l510 216v84l-510 216v-128z" />
    <glyph glyph-name="uni003F" unicode="?" horiz-adv-x="606" 
d="M198 54q0 -30 23.5 -53t59.5 -23t59 23t23 53t-23 52t-59 22t-59.5 -22t-23.5 -52zM419 500q0 -29 -20 -59t-60.5 -50.5t-100.5 -20.5h-30l20 -178h103l5 94q52 9 101.5 36.5t81.5 72t32 105.5q0 66 -34 114.5t-90 75.5t-121 27q-89 0 -147.5 -33.5t-106.5 -92.5l90 -73
q27 41 67.5 64t86.5 23q57 0 90 -27.5t33 -77.5z" />
    <glyph glyph-name="at" unicode="@" horiz-adv-x="770" 
d="M18 320q0 -99 40.5 -177t118 -122.5t188.5 -44.5q80 0 144 15t109 40l-52 77q-45 -28 -97.5 -36.5t-105.5 -8.5q-118 0 -179.5 71t-61.5 186q0 89 36 159.5t101.5 111.5t155.5 41q77 0 129 -34t78 -89t26 -119q0 -59 -14.5 -94.5t-33.5 -51.5t-32 -16q-16 0 -21.5 10
t-5.5 28q0 6 0.5 13.5t1.5 12.5l37 228h-108l-8 -60q-13 32 -37 51t-59 19q-40 0 -80.5 -25t-68 -73t-27.5 -118q0 -74 39 -116t97 -42q75 0 118 70q5 -39 35 -66.5t73 -27.5q33 0 67.5 15.5t64.5 47t48 80t18 115.5q0 62 -23.5 121t-67.5 106.5t-106.5 76t-139.5 28.5
q-85 0 -157.5 -31t-126.5 -86t-83.5 -128t-29.5 -157zM301 320q0 34 12 62.5t31 45.5t41 17q26 0 42.5 -21t16.5 -58q0 -40 -13.5 -66.5t-33.5 -40t-40 -13.5q-56 0 -56 74z" />
    <glyph glyph-name="A" unicode="A" horiz-adv-x="712" 
d="M236 158h240l73 -158h163l-356 742l-356 -742h163zM270 272l86 200l86 -200h-172z" />
    <glyph glyph-name="uni0042" unicode="B" horiz-adv-x="632" 
d="M442 378q48 20 76 56.5t28 88.5q0 60 -30.5 99t-83.5 58.5t-122 19.5h-234v-700h248q79 0 137.5 21t91.5 65.5t33 113.5q0 72 -41 115.5t-103 62.5zM220 316h92q54 0 90 -24t36 -75q0 -54 -36 -78t-90 -24h-92v201zM220 420v165h77q47 0 74 -21t27 -60t-27 -61.5
t-74 -22.5h-77z" />
    <glyph glyph-name="uni0043" unicode="C" horiz-adv-x="695" 
d="M192 350q0 69 31 120t82 78.5t111 27.5q74 0 126.5 -27.5t87.5 -68.5v162q-43 35 -93 53.5t-127 18.5q-81 0 -149.5 -26.5t-118.5 -74.5t-78 -115t-28 -148t28 -148t78 -115t118.5 -74.5t149.5 -26.5q77 0 127 19t93 53v162q-35 -40 -87.5 -68t-126.5 -28
q-60 0 -111 27.5t-82 78.5t-31 120z" />
    <glyph glyph-name="uni0044" unicode="D" horiz-adv-x="717" 
d="M168 0h55h91q111 0 193.5 43t128.5 121.5t46 185.5t-46 185.5t-128.5 121.5t-193.5 43h-91h-55h-92v-700h92zM223 130v440h87q62 0 112.5 -23t80.5 -71.5t30 -125.5t-30 -125.5t-80.5 -71.5t-112.5 -23h-87z" />
    <glyph glyph-name="uni0045" unicode="E" horiz-adv-x="587" 
d="M216 312h286v119h-286v147h306v122h-306h-48h-92v-700h92h48h306v122h-306v190z" />
    <glyph glyph-name="uni0046" unicode="F" horiz-adv-x="537" 
d="M216 298h256v120h-256v156h266v126h-266h-48h-92v-700h140v298z" />
    <glyph glyph-name="uni0047" unicode="G" horiz-adv-x="802" 
d="M416 260h199q-19 -64 -67 -107t-134 -43q-65 0 -116.5 29.5t-81.5 83.5t-30 127t30.5 125.5t82.5 81t115 28.5q68 0 113.5 -29t72.5 -74l123 72q-48 73 -125 116.5t-184 43.5q-109 0 -194.5 -45.5t-134.5 -127.5t-49 -191t48 -192t132.5 -129.5t193.5 -46.5q87 0 154 31
t112 85t67 125t19 151h-346v-114z" />
    <glyph glyph-name="uni0048" unicode="H" horiz-adv-x="764" 
d="M76 700v-700h144v307h326v-307h144v700h-144v-262h-326v262h-144z" />
    <glyph glyph-name="uni0049" unicode="I" horiz-adv-x="297" 
d="M76 700v-700h146v700h-146z" />
    <glyph glyph-name="J" unicode="J" horiz-adv-x="303" 
d="M-70 -68l-78 -110q24 -18 70 -37t98 -19q58 0 105 18.5t75 57.5t28 102v756h-152v-718q0 -46 -21.5 -65t-44.5 -19q-24 0 -45 9.5t-35 24.5z" />
    <glyph glyph-name="uni004B" unicode="K" horiz-adv-x="659" 
d="M473 700l-249 -284v284h-148v-700h148v317l260 -317h174l-304 372l290 328h-171z" />
    <glyph glyph-name="uni004C" unicode="L" horiz-adv-x="504" 
d="M76 700v-700h423v126h-279v574h-144z" />
    <glyph glyph-name="uni004D" unicode="M" horiz-adv-x="866" 
d="M231 386l203 -321l201 321l45 -386h152l-106 735l-292 -451l-294 451l-104 -735h150z" />
    <glyph glyph-name="N" unicode="N" horiz-adv-x="787" 
d="M573 700v-423l-497 458v-735h140v423l496 -458v735h-139z" />
    <glyph glyph-name="O" unicode="O" horiz-adv-x="811" 
d="M36 350q0 -79 27.5 -146.5t77 -117t117 -77t148.5 -27.5t148.5 27.5t117 77t77 117t27.5 146.5q0 80 -27.5 146.5t-78 115t-117.5 75.5t-147 27q-79 0 -146.5 -27t-117.5 -75.5t-78 -115t-28 -146.5zM188 350q0 67 28 119t77 81.5t113 29.5q66 0 115 -29.5t76 -81.5
t27 -119t-28 -119t-77 -81.5t-113 -29.5t-113 29.5t-77 81.5t-28 119z" />
    <glyph glyph-name="P" unicode="P" horiz-adv-x="600" 
d="M220 254h83q124 0 192.5 59.5t68.5 162.5q0 104 -68.5 164t-192.5 60h-83h-56h-88v-700h144v254zM220 376v202h83q56 0 89 -26t33 -76q0 -49 -33 -74.5t-89 -25.5h-83z" />
    <glyph glyph-name="uni0051" unicode="Q" horiz-adv-x="841" 
d="M363 300l167 -160q-50 -28 -113 -28q-64 0 -116 30t-82.5 83.5t-30.5 124.5q0 67 28.5 119t78 81.5t113.5 29.5q70 0 121.5 -33t79.5 -88.5t28 -122.5q0 -34 -8 -63.5t-22 -55.5l-88 83h-156zM36 350q0 -79 27.5 -146.5t77.5 -117t118 -77t149 -27.5q63 0 118.5 17.5
t100.5 48.5l58 -56h161l-141 133q34 46 52.5 103t18.5 122q0 80 -27.5 146.5t-77 115t-116.5 75.5t-147 27q-79 0 -147 -27t-118.5 -75.5t-78.5 -115t-28 -146.5z" />
    <glyph glyph-name="R" unicode="R" horiz-adv-x="621" 
d="M220 254h61l164 -254h171l-190 271q71 24 109.5 77.5t38.5 127.5q0 67 -31 117.5t-89.5 78.5t-141.5 28h-92h-56h-88v-700h144v254zM220 368v209h83q56 0 89 -27.5t33 -77.5q0 -49 -33 -76.5t-89 -27.5h-83z" />
    <glyph glyph-name="uni0053" unicode="S" horiz-adv-x="602" 
d="M140 244l-104 -72q22 -58 63 -100.5t95 -66t116 -23.5q117 0 184 55.5t67 156.5q0 61 -25.5 103t-66 68.5t-85.5 42.5q-42 15 -78.5 30t-59.5 34t-23 46q0 33 24.5 52t66.5 19q46 0 76 -26t52 -67l110 66q-14 36 -45 71t-80 58t-119 23q-68 0 -121 -24t-83 -66.5
t-30 -99.5q0 -49 19 -84.5t48 -60t61 -40.5t58 -26q40 -15 74 -30.5t55 -37t21 -55.5q0 -39 -24.5 -60.5t-71.5 -21.5q-58 0 -98.5 35t-75.5 101z" />
    <glyph glyph-name="uni0054" unicode="T" horiz-adv-x="532" 
d="M6 570h188v-570h144v570h189v130h-521v-130z" />
    <glyph glyph-name="U" unicode="U" horiz-adv-x="678" 
d="M70 700v-470q0 -82 35 -139t96 -86t138 -29t138 29t96 86t35 139v470h-144v-462q0 -58 -31.5 -94.5t-93.5 -36.5q-61 0 -93 36.5t-32 94.5v462h-144z" />
    <glyph glyph-name="uni0056" unicode="V" horiz-adv-x="712" 
d="M356 246l-188 454h-168l356 -742l356 742h-168z" />
    <glyph glyph-name="W" unicode="W" horiz-adv-x="1042" 
d="M723 254l-202 481l-202 -480l-144 445h-169l294 -740l221 459l221 -459l294 740h-168z" />
    <glyph glyph-name="uni0058" unicode="X" horiz-adv-x="646" 
d="M450 700l-124 -219l-119 219h-177l212 -338l-236 -362h176l144 250l138 -250h177l-231 362l216 338h-176z" />
    <glyph glyph-name="uni0059" unicode="Y" horiz-adv-x="630" 
d="M464 700l-149 -282l-149 282h-166l242 -410v-290h146v290l242 410h-166z" />
    <glyph glyph-name="Z" unicode="Z" horiz-adv-x="597" 
d="M50 570h302l-342 -570h540v126h-312l344 574h-532v-130z" />
    <glyph glyph-name="uni005B" unicode="[" horiz-adv-x="343" 
d="M223 665h101v115h-231v-1000h231v115h-101v770z" />
    <glyph glyph-name="uni005C" unicode="\" horiz-adv-x="536" 
d="M15 700l378 -700h129l-378 700h-129z" />
    <glyph glyph-name="bracketright" unicode="]" horiz-adv-x="343" 
d="M121 -105h-101v-115h230v1000h-230v-115h101v-770z" />
    <glyph glyph-name="uni005E" unicode="^" horiz-adv-x="510" 
d="M255 592l88 -140h119l-170 258h-74l-170 -258h119z" />
    <glyph glyph-name="uni005F" unicode="_" horiz-adv-x="521" 
d="M0 -148h522v84h-522v-84z" />
    <glyph glyph-name="grave" unicode="`" horiz-adv-x="375" 
d="M60 656l180 -150l74 38l-150 160z" />
    <glyph glyph-name="a" unicode="a" horiz-adv-x="526" 
d="M116 328q17 11 55.5 26.5t87.5 15.5q38 0 62 -17t24 -48v-54q-22 11 -53.5 20.5t-67.5 9.5q-89 0 -143.5 -40.5t-54.5 -111.5q0 -67 45.5 -103t118.5 -36q52 0 93.5 19.5t61.5 56.5v-66h125v326q0 71 -56.5 108.5t-145.5 37.5q-62 0 -113 -17.5t-87 -36.5zM156 137
q0 32 24.5 50.5t69.5 18.5q55 0 95 -21v-1q0 -58 -33 -81t-80 -23q-33 0 -54.5 14.5t-21.5 42.5z" />
    <glyph glyph-name="uni0062" unicode="b" horiz-adv-x="602" 
d="M434 230q0 -61 -36.5 -96.5t-87.5 -35.5q-28 0 -55 15.5t-45 45t-18 71.5t18 71.5t45 45t55 15.5q51 0 87.5 -35t36.5 -97zM570 230q0 77 -31.5 130.5t-82 81.5t-108.5 28q-102 0 -156 -83v393h-130v-780h130v73q54 -83 156 -83q58 0 108.5 28t82 81.5t31.5 130.5z" />
    <glyph glyph-name="uni0063" unicode="c" horiz-adv-x="488" 
d="M164 230q0 38 17.5 68.5t47.5 48t67 17.5q42 0 83 -20.5t60 -53.5v134q-24 20 -62 33t-89 13q-74 0 -132.5 -30t-92 -84t-33.5 -126t33.5 -126t92 -84t132.5 -30q51 0 89 12.5t62 34.5v133q-19 -33 -58.5 -53.5t-84.5 -20.5q-55 0 -93.5 37t-38.5 97z" />
    <glyph glyph-name="uni0064" unicode="d" horiz-adv-x="602" 
d="M168 230q0 62 36.5 97t87.5 35q28 0 55.5 -15.5t46 -45t18.5 -71.5t-18.5 -71.5t-46 -45t-55.5 -15.5q-51 0 -87.5 35.5t-36.5 96.5zM33 230q0 -77 31 -130.5t81.5 -81.5t108.5 -28q50 0 91 22.5t67 63.5v-76h130v780h-130v-396q-26 41 -67 63.5t-91 22.5
q-58 0 -108.5 -28t-81.5 -81.5t-31 -130.5z" />
    <glyph glyph-name="uni0065" unicode="e" horiz-adv-x="550" 
d="M162 202h350q2 11 2 19.5v14.5q0 73 -29.5 125t-82 80.5t-120.5 28.5q-98 0 -163 -52.5t-79 -137.5q-2 -12 -3 -24.5t-1 -25.5q0 -69 32.5 -123.5t89 -85.5t128.5 -31q64 0 105.5 16t69 44t47.5 65l-110 40q-16 -31 -41 -47t-65 -16q-49 0 -85.5 27.5t-44.5 82.5z
M165 284q8 43 39 66.5t76 23.5q47 0 73.5 -24t33.5 -66h-222z" />
    <glyph glyph-name="uni0066" unicode="f" horiz-adv-x="326" 
d="M300 649l55 98q-15 15 -42.5 31t-72.5 16q-79 0 -120.5 -43t-41.5 -121v-170h-54v-110h54v-350h127v350h109v110h-109v140q0 39 13 57t35 18q14 0 25.5 -5.5t21.5 -20.5z" />
    <glyph glyph-name="g" unicode="g" horiz-adv-x="598" 
d="M168 234q0 62 36.5 95t87.5 33q28 0 55.5 -14.5t46 -43t18.5 -70.5t-18.5 -70.5t-46 -43t-55.5 -14.5q-51 0 -87.5 33.5t-36.5 94.5zM33 234q0 -77 31 -129.5t81.5 -79.5t108.5 -27q104 0 158 83v-71q0 -47 -17.5 -78t-46.5 -46t-62 -15q-51 0 -82.5 26.5t-34.5 70.5
h-127q6 -91 67.5 -148t182.5 -57q66 0 122 26t89.5 80.5t33.5 140.5v450h-125v-73q-54 83 -158 83q-58 0 -108.5 -27t-81.5 -79.5t-31 -129.5z" />
    <glyph glyph-name="h" unicode="h" horiz-adv-x="555" 
d="M362 280v-280h130v298q0 86 -38.5 131.5t-119.5 45.5q-49 0 -84 -22t-55 -59v386h-131v-780h131v280q0 44 25.5 69t65.5 25q41 0 58.5 -24.5t17.5 -69.5z" />
    <glyph glyph-name="uni0069" unicode="i" horiz-adv-x="271" 
d="M72 460v-460h126v460h-126zM58 638q0 -31 22.5 -52.5t55.5 -21.5t55.5 21.5t22.5 52.5q0 32 -22.5 53t-55.5 21t-55.5 -21t-22.5 -53z" />
    <glyph glyph-name="uni006A" unicode="j" horiz-adv-x="264" 
d="M-29 -88l-55 -98q15 -15 43 -31.5t73 -16.5q80 0 120.5 44t40.5 122v528h-127v-499q0 -39 -12.5 -57t-35.5 -18q-13 0 -24.5 5.5t-22.5 20.5zM52 638q0 -31 22.5 -52.5t55.5 -21.5t55.5 21.5t22.5 52.5q0 32 -22.5 53t-55.5 21t-55.5 -21t-22.5 -53z" />
    <glyph glyph-name="uni006B" unicode="k" horiz-adv-x="536" 
d="M355 460l-168 -162v482h-125v-780h125v234l190 -234h155l-218 270l198 190h-157z" />
    <glyph glyph-name="uni006C" unicode="l" horiz-adv-x="258" 
d="M64 780v-780h131v780h-131z" />
    <glyph glyph-name="uni006D" unicode="m" horiz-adv-x="808" 
d="M745 294q0 86 -34.5 131t-112.5 45q-46 0 -83.5 -21t-61.5 -57q-30 78 -132 78q-46 0 -79 -21t-52 -56v67h-126v-460h126v280q0 44 21 69t58 25q38 0 52.5 -24.5t14.5 -69.5v-280h131v280q0 44 21 69t58 25q38 0 53 -24.5t15 -69.5v-280h131v294z" />
    <glyph glyph-name="n" unicode="n" horiz-adv-x="560" 
d="M362 280v-280h134v294q0 86 -40.5 131t-121.5 45q-49 0 -84 -21.5t-55 -58.5v70h-131v-460h131v280q0 44 25.5 69t65.5 25q41 0 58.5 -24.5t17.5 -69.5z" />
    <glyph glyph-name="uni006F" unicode="o" horiz-adv-x="576" 
d="M166 230q0 59 35.5 94.5t86.5 35.5t86.5 -35.5t35.5 -94.5q0 -58 -35.5 -94t-86.5 -36t-86.5 36t-35.5 94zM33 230q0 -72 33.5 -126t91 -84t130.5 -30t131 30t91.5 84t33.5 126t-33.5 126t-91.5 84t-131 30t-130.5 -30t-91 -84t-33.5 -126z" />
    <glyph glyph-name="uni0070" unicode="p" horiz-adv-x="602" 
d="M434 230q0 -61 -36.5 -94.5t-87.5 -33.5q-28 0 -55 14.5t-45 43t-18 70.5t18 70.5t45 43t55 14.5q51 0 87.5 -33t36.5 -95zM570 230q0 79 -31.5 133.5t-82 82.5t-108.5 28q-52 0 -91.5 -23t-64.5 -65v74h-130v-680h130v294q25 -42 64.5 -65t91.5 -23q58 0 108.5 28
t82 82.5t31.5 133.5z" />
    <glyph glyph-name="uni0071" unicode="q" horiz-adv-x="602" 
d="M168 230q0 62 36.5 95t87.5 33q28 0 55.5 -14.5t46 -43t18.5 -70.5t-18.5 -70.5t-46 -43t-55.5 -14.5q-51 0 -87.5 33.5t-36.5 94.5zM33 230q0 -79 31 -133.5t81.5 -82.5t108.5 -28q53 0 93 23.5t65 66.5v-296h130v680h-130v-76q-25 43 -65 66.5t-93 23.5
q-58 0 -108.5 -28t-81.5 -82.5t-31 -133.5z" />
    <glyph glyph-name="uni0072" unicode="r" horiz-adv-x="390" 
d="M327 324l59 110q-13 18 -36 27t-48 9q-31 0 -60 -18t-50 -49v57h-128v-460h128v243q0 50 19 78.5t56 28.5q20 0 33.5 -7t26.5 -19z" />
    <glyph glyph-name="uni0073" unicode="s" horiz-adv-x="436" 
d="M85 170l-64 -78q36 -47 93 -77.5t126 -30.5q78 0 124.5 37t46.5 109q0 42 -18 68.5t-47 43.5t-62 30q-27 11 -53 19.5t-42.5 19.5t-16.5 27q0 34 54 34q28 0 59.5 -15t59.5 -41l57 78q-30 33 -78.5 54.5t-106.5 21.5q-45 0 -82 -16t-59 -45t-22 -67q0 -43 19 -70.5
t49 -44.5t62 -29q39 -15 69.5 -30.5t30.5 -41.5q0 -38 -54 -38q-28 0 -66 23t-79 59z" />
    <glyph glyph-name="uni0074" unicode="t" horiz-adv-x="294" 
d="M84 620v-160h-79v-110h79v-350h126v350h80v110h-80v160h-126z" />
    <glyph glyph-name="uni0075" unicode="u" horiz-adv-x="560" 
d="M199 180v280h-135v-294q0 -85 40.5 -130.5t121.5 -45.5q50 0 85 22t55 59v-71h130v460h-130v-280q0 -43 -25 -68.5t-66 -25.5q-40 0 -58 24.5t-18 69.5z" />
    <glyph glyph-name="v" unicode="v" horiz-adv-x="501" 
d="M-2 460l253 -508l252 508h-139l-113 -276l-113 276h-140z" />
    <glyph glyph-name="w" unicode="w" horiz-adv-x="736" 
d="M-4 460l226 -490l144 292l149 -292l225 490h-138l-101 -255l-136 290l-130 -289l-100 254h-139z" />
    <glyph glyph-name="uni0078" unicode="x" horiz-adv-x="498" 
d="M344 460l-92 -132l-93 132h-149l172 -224l-182 -236h149l103 146l102 -146h144l-180 236l170 224h-144z" />
    <glyph glyph-name="uni0079" unicode="y" horiz-adv-x="496" 
d="M503 460h-135l-115 -286l-114 286h-146l193 -414l-116 -266h133z" />
    <glyph glyph-name="z" unicode="z" horiz-adv-x="503" 
d="M269 341l-254 -341h445v119h-218l247 341h-435v-119h215z" />
    <glyph glyph-name="uni007B" unicode="{" horiz-adv-x="372" 
d="M240 625q0 20 13 35t35 15h34v105h-81q-35 0 -68 -14.5t-54 -45t-21 -80.5v-192q0 -57 -13.5 -79.5t-42.5 -30.5v-96q29 -7 42.5 -30t13.5 -80v-192q0 -49 21 -80t54 -45.5t68 -14.5h81v105h-34q-22 0 -35 15.5t-13 34.5v135q0 37 -4 77.5t-20 74t-54 48.5q38 16 54 49
t20 73.5t4 77.5v135z" />
    <glyph glyph-name="uni007C" unicode="|" horiz-adv-x="328" 
d="M100 785v-1000h130v1000h-130z" />
    <glyph glyph-name="uni007D" unicode="}" horiz-adv-x="372" 
d="M138 -45q0 -19 -12.5 -34.5t-35.5 -15.5h-34v-105h80q35 0 68 14.5t54.5 45.5t21.5 80v192q0 57 14 80t42 30v96q-28 8 -42 30.5t-14 79.5v192q0 50 -21.5 80.5t-54.5 45t-68 14.5h-80v-105h34q23 0 35.5 -15t12.5 -35v-135q0 -37 3.5 -77.5t20 -73.5t53.5 -49
q-37 -15 -53.5 -48.5t-20 -74t-3.5 -77.5v-135z" />
    <glyph glyph-name="uni007E" unicode="~" horiz-adv-x="575" 
d="M152 168q-2 6 -4 11.5t-2 14.5q0 20 11 34t36 14q38 0 84 -34q36 -24 64.5 -37t56.5 -13q38 0 63 13.5t44 38.5q17 21 22 44t5 44q0 8 -1 15t-3 13l-109 6q6 -15 6 -32q0 -19 -8.5 -30.5t-26.5 -11.5q-26 0 -72 34q-34 24 -62.5 36t-61.5 12q-45 0 -73 -15t-48 -41
q-16 -21 -23 -43t-7 -45q0 -13 3 -24z" />
    <glyph glyph-name="uni00A0" unicode="&#xa0;" horiz-adv-x="300" 
 />
    <glyph glyph-name="exclamdown" unicode="&#xa1;" horiz-adv-x="330" 
d="M248 411q0 34 -23.5 55.5t-59.5 21.5t-59 -21.5t-23 -55.5t23 -55.5t59 -21.5t59.5 21.5t23.5 55.5zM246 -234l-29 478h-104l-28 -478h161z" />
    <glyph glyph-name="uni00A2" unicode="&#xa2;" horiz-adv-x="580" 
d="M243 578l5 -116q-84 -19 -136.5 -80.5t-52.5 -151.5q0 -89 52 -150.5t136 -81.5l-4 -110h110l-5 103q78 8 120 45v135q-19 -31 -56 -52.5t-86 -21.5q-36 0 -66.5 16t-49 46t-18.5 71q0 39 18.5 69t49 47t66.5 17q49 0 86 -21.5t56 -52.5v135q-20 17 -51 29t-69 16l5 109
h-110z" />
    <glyph glyph-name="sterling" unicode="&#xa3;" horiz-adv-x="602" 
d="M439 470l117 45q-2 32 -17.5 66t-45 63t-71.5 47.5t-97 18.5q-64 0 -116.5 -22.5t-83.5 -65t-31 -102.5q0 -54 21 -87.5t43 -62.5h-91v-93h130v-1v-1q0 -73 -34 -135.5t-108 -139.5h477v122h-275q29 29 48 67t19 79v4.5v4.5h116v93h-147q-20 32 -40.5 60.5t-20.5 71.5
q0 47 30 68t68 21q39 0 62 -17.5t34 -45.5t13 -58z" />
    <glyph glyph-name="currency" unicode="&#xa4;" horiz-adv-x="577" 
d="M172 300q0 54 33 87.5t84 33.5t84.5 -33.5t33.5 -87.5t-33.5 -87.5t-84.5 -33.5t-84 33.5t-33 87.5zM86 38l64 64q61 -42 139 -42t139 42l64 -64l58 59l-64 64q20 29 30.5 64t10.5 75t-10.5 75.5t-30.5 63.5l64 64l-58 59l-64 -64q-61 42 -139 42t-139 -42l-64 64
l-59 -59l65 -64q-19 -28 -30 -63.5t-11 -75.5t11 -75t30 -64l-65 -64z" />
    <glyph glyph-name="uni00A5" unicode="&#xa5;" horiz-adv-x="642" 
d="M471 700l-150 -281l-149 281h-166l198 -335h-159v-93h203v-57h-203v-93h203v-122h148v122h198v93h-198v57h198v93h-156l197 335h-164z" />
    <glyph glyph-name="uni00A6" unicode="&#xa6;" horiz-adv-x="329" 
d="M229 263h-129v-258h129v258zM100 695v-258h129v258h-129z" />
    <glyph glyph-name="uni00A7" unicode="&#xa7;" horiz-adv-x="527" 
d="M118 170l-70 -80q27 -46 82.5 -77.5t132.5 -31.5q50 0 93 16t70 49t27 84q0 44 -24.5 74t-59.5 50q37 17 59 47t22 75q0 53 -39 87.5t-94 51.5q-26 9 -50.5 17t-39.5 18.5t-15 24.5q0 34 57 34q25 0 55.5 -13t49.5 -38l69 82q-12 22 -40 40t-65 29t-76 11
q-42 0 -82.5 -15.5t-66.5 -46t-26 -76.5t24.5 -74.5t57.5 -46.5q-42 -16 -67 -46.5t-25 -73.5q0 -38 21.5 -65.5t54.5 -46t69 -29.5q41 -13 70.5 -26t29.5 -41q0 -42 -63 -42q-33 0 -72.5 20t-68.5 59zM243 429q33 -13 59.5 -30t26.5 -49q0 -19 -10 -35.5t-26 -27.5
q-22 8 -43.5 17.5t-35 25t-13.5 39.5q0 22 11.5 36t30.5 24z" />
    <glyph glyph-name="dieresis" unicode="&#xa8;" horiz-adv-x="499" 
d="M56 640q0 -32 23 -53t55 -21t55 21t23 53t-23 53t-55 21t-55 -21t-23 -53zM287 640q0 -32 23 -53t55 -21t55 21t23 53t-23 53t-55 21t-55 -21t-23 -53z" />
    <glyph glyph-name="uni00A9" unicode="&#xa9;" horiz-adv-x="800" 
d="M40 350q0 -78 27.5 -144t76 -114.5t114.5 -75t142 -26.5q77 0 142.5 26.5t114 75t76 114.5t27.5 144t-27.5 144t-76 114.5t-114 75t-142.5 26.5q-76 0 -142 -26.5t-114.5 -75t-76 -114.5t-27.5 -144zM95 350q0 89 40 159t109.5 110.5t155.5 40.5q87 0 156 -40.5
t109 -110.5t40 -159t-40 -159t-109 -110.5t-156 -40.5q-86 0 -155.5 40.5t-109.5 110.5t-40 159zM274 350q0 62 39 99t96 37q44 0 75.5 -17t52.5 -41v97q-25 20 -55.5 32t-76.5 12q-64 0 -115 -28t-80.5 -77t-29.5 -114q0 -64 29.5 -113.5t80.5 -77.5t115 -28q46 0 76.5 12
t55.5 32v97q-21 -24 -52.5 -41t-75.5 -17q-57 0 -96 37t-39 99z" />
    <glyph glyph-name="ordfeminine" unicode="&#xaa;" horiz-adv-x="260" 
d="M63 631q8 5 27.5 13t44.5 8q19 0 31 -9t12 -25v-27q-11 6 -26.5 10.5t-34.5 4.5q-40 0 -69.5 -21t-29.5 -56t24.5 -54.5t58.5 -19.5q26 0 46.5 10t30.5 28v-33h63v172q0 35 -28.5 54t-72.5 19q-31 0 -57 -9t-44 -18zM84 531q0 16 12.5 26.5t33.5 10.5q28 0 48 -10v-6
q0 -29 -17.5 -40t-38.5 -11q-38 0 -38 30z" />
    <glyph glyph-name="uni00AB" unicode="&#xab;" horiz-adv-x="532" 
d="M143 259l150 186l-81 58l-181 -248l181 -248l81 58zM334 259l150 186l-81 58l-181 -248l181 -248l81 58z" />
    <glyph glyph-name="uni00AC" unicode="&#xac;" horiz-adv-x="641" 
d="M65 280h415v-105h97v220h-512v-115z" />
    <glyph glyph-name="uni00AD" unicode="&#xad;" horiz-adv-x="210" 
d="M5 200h200v75h-200v-75z" />
    <glyph glyph-name="uni00AE" unicode="&#xae;" horiz-adv-x="800" 
d="M40 350q0 -78 27.5 -144t76 -114.5t114.5 -75t142 -26.5q77 0 142.5 26.5t114 75t76 114.5t27.5 144t-27.5 144t-76 114.5t-114 75t-142.5 26.5q-76 0 -142 -26.5t-114.5 -75t-76 -114.5t-27.5 -144zM95 350q0 89 40 159t109.5 110.5t155.5 40.5q87 0 156 -40.5
t109 -110.5t40 -159t-40 -159t-109 -110.5t-156 -40.5q-86 0 -155.5 40.5t-109.5 110.5t-40 159zM346 307h40l91 -157h102l-114 166q45 14 69.5 46t24.5 78q0 56 -42 93t-116 37h-55h-33h-54v-420h87v157zM346 375v121h50q34 0 53.5 -15t19.5 -45t-19.5 -45.5t-53.5 -15.5
h-50z" />
    <glyph glyph-name="uni00AF" unicode="&#xaf;" horiz-adv-x="525" 
d="M80 580h365v115h-365v-115z" />
    <glyph glyph-name="uni00B0" unicode="&#xb0;" horiz-adv-x="291" 
d="M82 598q0 29 18 47.5t45 18.5t45.5 -18.5t18.5 -47.5t-18.5 -47t-45.5 -18t-45 18t-18 47zM18 598q0 -54 36 -88t91 -34t91.5 34t36.5 88t-36.5 88t-91.5 34t-91 -34t-36 -88z" />
    <glyph glyph-name="uni00B1" unicode="&#xb1;" horiz-adv-x="628" 
d="M247 620v-164h-182v-120h182v-164h134v164h182v120h-182v164h-134zM65 4h498v116h-498v-116z" />
    <glyph glyph-name="uni00B2" unicode="&#xb2;" horiz-adv-x="390" 
d="M25 282h338v80h-174l107 101q26 24 43 52.5t17 61.5q0 32 -16.5 62.5t-49.5 50.5t-83 20q-51 0 -87 -21.5t-55 -57.5t-19 -81h86q0 38 20.5 61.5t52.5 23.5t47 -18.5t15 -41.5q0 -25 -13.5 -46.5t-37.5 -47.5z" />
    <glyph glyph-name="uni00B3" unicode="&#xb3;" horiz-adv-x="349" 
d="M174 271q71 0 112.5 34.5t41.5 88.5q0 41 -22.5 67t-61.5 39q33 14 52.5 37t19.5 55q0 47 -36 81t-102 34q-63 0 -101.5 -35t-38.5 -89h80q0 24 17 39t42 15q26 0 39.5 -13.5t13.5 -35.5q0 -25 -21.5 -43.5t-58.5 -18.5v-13v-29v-17q44 0 68 -17.5t24 -47.5
q0 -29 -18.5 -44t-47.5 -15t-49.5 16.5t-20.5 47.5h-86q0 -36 18.5 -67t53 -50t82.5 -19z" />
    <glyph glyph-name="uni00B4" unicode="&#xb4;" horiz-adv-x="375" 
d="M313 656l-103 48l-150 -160l73 -38z" />
    <glyph glyph-name="uni00B5" unicode="&#xb5;" horiz-adv-x="560" 
d="M199 180v280h-9h-126v-294v-486h126v313q17 -3 36 -3q47 0 82.5 20.5t57.5 54.5v-65h130v460h-130v-280q0 -43 -25 -68t-66 -25q-40 0 -58 23.5t-18 69.5z" />
    <glyph glyph-name="uni00B6" unicode="&#xb6;" horiz-adv-x="644" 
d="M288 270v-490h114v835h68v-835h114v920h-74h-40h-68h-114q-62 0 -114 -25t-83 -72.5t-31 -117.5q0 -69 31 -117t83 -73t114 -25z" />
    <glyph glyph-name="uni00B7" unicode="&#xb7;" horiz-adv-x="315" 
d="M75 260q0 -34 23.5 -58t59.5 -24t59.5 24t23.5 58t-23.5 57.5t-59.5 23.5t-59.5 -23.5t-23.5 -57.5z" />
    <glyph glyph-name="uni00B8" unicode="&#xb8;" horiz-adv-x="380" 
d="M187 68l-87 -187q23 11 45.5 14t29.5 3q24 0 41 -7t17 -27q0 -36 -54 -36q-16 0 -35 6t-36 19l-42 -61q31 -22 61 -30t67 -8q31 0 59 11.5t46.5 35t18.5 57.5q0 31 -14 51t-34 30t-39 10q-14 0 -28 -3l80 119z" />
    <glyph glyph-name="uni00B9" unicode="&#xb9;" horiz-adv-x="478" 
d="M139 584l101 26v-336h84v427l-185 -39v-78z" />
    <glyph glyph-name="uni00BA" unicode="&#xba;" horiz-adv-x="278" 
d="M86 580q0 29 17.5 47t42.5 18q26 0 44 -18t18 -47t-18 -46.5t-44 -17.5q-25 0 -42.5 17.5t-17.5 46.5zM19 580q0 -54 36 -87t91 -33t92 33t37 87t-37 87t-92 33t-91 -33t-36 -87z" />
    <glyph glyph-name="uni00BB" unicode="&#xbb;" horiz-adv-x="532" 
d="M389 251l-150 -186l81 -58l181 248l-181 248l-81 -58zM198 251l-150 -186l81 -58l181 248l-181 248l-81 -58z" />
    <glyph glyph-name="uni00BC" unicode="&#xbc;" horiz-adv-x="802" 
d="M26 584l101 26v-336h84v427l-185 -39v-78zM627 700l-520 -700h87l520 700h-87zM704 77h66v74h-66v269h-59l-241 -343h211v-77h89v77zM623 142h-100l100 141v-141z" />
    <glyph glyph-name="onehalf" unicode="&#xbd;" horiz-adv-x="871" 
d="M502 2h338v80h-175l108 101q26 24 42.5 52.5t16.5 61.5q0 32 -16 62.5t-49 50.5t-83 20q-51 0 -87 -21.5t-55 -57.5t-19 -81h85q0 38 20.5 61.5t52.5 23.5t47 -18.5t15 -41.5q0 -25 -13.5 -46.5t-37.5 -47.5zM26 584l101 26v-336h84v427l-185 -39v-78zM627 700l-520 -700
h87l520 700h-87z" />
    <glyph glyph-name="uni00BE" unicode="&#xbe;" horiz-adv-x="861" 
d="M181 271q71 0 112.5 34.5t41.5 88.5q0 41 -22.5 67t-61.5 39q33 14 52.5 37t19.5 55q0 47 -36 81t-102 34q-63 0 -101.5 -35t-38.5 -89h81q0 24 17 39t42 15q26 0 39 -13.5t13 -35.5q0 -25 -21.5 -43.5t-58.5 -18.5v-13v-29v-17q44 0 68 -17.5t24 -47.5q0 -29 -18.5 -44
t-47.5 -15t-49.5 16.5t-20.5 47.5h-86q0 -36 18.5 -67t53 -50t82.5 -19zM692 700l-520 -700h87l520 700h-87zM765 77h66v74h-66v269h-60l-240 -343h210v-77h90v77zM683 142h-100l100 141v-141z" />
    <glyph glyph-name="uni00BF" unicode="&#xbf;" horiz-adv-x="606" 
d="M408 647q0 30 -23.5 52.5t-59.5 22.5t-59 -22.5t-23 -52.5t23 -52.5t59 -22.5t59.5 22.5t23.5 52.5zM187 200q0 29 20 59.5t60.5 51t100.5 20.5h31l-20 177h-104l-6 -95q-54 -7 -102.5 -34.5t-79.5 -73t-31 -105.5q0 -66 34 -114.5t90 -75.5t120 -27q89 0 148 34t107 93
l-91 71q-26 -40 -66.5 -62.5t-87.5 -22.5q-58 0 -90.5 27.5t-32.5 76.5z" />
    <glyph glyph-name="uni00C0" unicode="&#xc0;" horiz-adv-x="712" 
d="M204 952l180 -150l74 38l-150 160zM236 157h239l74 -157h163l-356 742l-355 -742h163zM270 272l86 200l86 -200h-172z" />
    <glyph glyph-name="Aacute" unicode="&#xc1;" horiz-adv-x="712" 
d="M506 952l-103 48l-150 -160l73 -38zM236 157h239l74 -157h163l-356 742l-355 -742h163zM270 272l86 200l86 -200h-172z" />
    <glyph glyph-name="Acircumflex" unicode="&#xc2;" horiz-adv-x="712" 
d="M356 868l97 -89l90 62l-187 140l-186 -140l90 -62zM236 157h239l74 -157h163l-356 742l-355 -742h163zM270 272l86 200l86 -200h-172z" />
    <glyph glyph-name="uni00C3" unicode="&#xc3;" horiz-adv-x="712" 
d="M169 848l67 -55q0 8 3.5 20t14 21.5t29.5 9.5q24 0 44.5 -13t42 -25.5t48.5 -12.5q30 0 55 12.5t43.5 31.5t26.5 37l-63 65q-15 -24 -30.5 -37.5t-32.5 -13.5q-21 0 -35.5 7.5t-27.5 17.5t-29 17.5t-41 7.5q-43 0 -75 -26.5t-40 -63.5zM236 157h239l74 -157h163l-356 742
l-355 -742h163zM270 272l86 200l86 -200h-172z" />
    <glyph glyph-name="uni00C4" unicode="&#xc4;" horiz-adv-x="712" 
d="M145 840q0 -32 23 -53t55 -21t55.5 21t23.5 53t-23.5 53t-55.5 21t-55 -21t-23 -53zM407 836q0 -32 23 -53t55 -21t55 21t23 53t-23 53t-55 21t-55 -21t-23 -53zM236 157h239l74 -157h163l-356 742l-355 -742h163zM270 272l86 200l86 -200h-172z" />
    <glyph glyph-name="Aring" unicode="&#xc5;" horiz-adv-x="712" 
d="M308 800q0 23 14.5 36t33.5 13t33.5 -13t14.5 -36t-14.5 -36t-33.5 -13t-33.5 13t-14.5 36zM238 800q0 -43 27 -72t67 -37l-331 -691h163l72 157h239l74 -157h163l-332 691q40 8 67.5 37t27.5 72q0 50 -35.5 80.5t-83.5 30.5t-83 -30.5t-35 -80.5zM270 272l86 200
l86 -200h-172z" />
    <glyph glyph-name="uni00C6" unicode="&#xc6;" horiz-adv-x="1048" 
d="M685 311h273v120h-273v147h293v122h-293h-153h-95l-425 -700h178l97 168h245v-168h71h82h293v122h-293v189zM532 591v-290h-168z" />
    <glyph glyph-name="uni00C7" unicode="&#xc7;" horiz-adv-x="696" 
d="M192 350q0 70 31.5 120.5t82.5 78t111 27.5q74 0 126 -28t87 -68v162q-43 35 -93 53.5t-127 18.5q-81 0 -149.5 -26.5t-118.5 -74.5t-78 -115t-28 -148q0 -96 38 -171t106 -123.5t157 -63.5l-60 -127q23 11 45.5 13.5t29.5 2.5q24 0 41 -6.5t17 -26.5q0 -37 -53 -37
q-16 0 -35.5 6t-36.5 19l-42 -60q31 -22 61 -30.5t67 -8.5q31 0 59 12t46.5 35.5t18.5 57.5q0 31 -13.5 50.5t-33.5 29.5t-39 10h-14t-14 -2l37 56q73 1 122 19.5t90 52.5v162q-35 -40 -87 -68t-126 -28q-60 0 -111 27.5t-82.5 78.5t-31.5 120z" />
    <glyph glyph-name="Egrave" unicode="&#xc8;" horiz-adv-x="587" 
d="M146 929l180 -150l74 39l-150 160zM216 311h286v120h-286v147h306v122h-306h-47h-93v-700h93h47h306v122h-306v189z" />
    <glyph glyph-name="Eacute" unicode="&#xc9;" horiz-adv-x="587" 
d="M449 929l-104 49l-150 -160l74 -39zM216 311h286v120h-286v147h306v122h-306h-47h-93v-700h93h47h306v122h-306v189z" />
    <glyph glyph-name="uni00CA" unicode="&#xca;" horiz-adv-x="587" 
d="M304 878l110 -95l50 40l-160 140l-160 -140l50 -40zM216 311h286v120h-286v147h306v122h-306h-47h-93v-700h93h47h306v122h-306v189z" />
    <glyph glyph-name="Edieresis" unicode="&#xcb;" horiz-adv-x="587" 
d="M111 860q0 -32 23 -53t55 -21t55 21t23 53t-23 52.5t-55 20.5t-55 -20.5t-23 -52.5zM342 860q0 -32 23 -53t55 -21t55 21t23 53t-23 52.5t-55 20.5t-55 -20.5t-23 -52.5zM216 311h286v120h-286v147h306v122h-306h-47h-93v-700h93h47h306v122h-306v189z" />
    <glyph glyph-name="uni00CC" unicode="&#xcc;" horiz-adv-x="297" 
d="M-8 929l180 -150l74 39l-150 160zM76 700v-700h146v700h-146z" />
    <glyph glyph-name="uni00CD" unicode="&#xcd;" horiz-adv-x="297" 
d="M294 929l-103 49l-150 -160l73 -39zM76 700v-700h146v700h-146z" />
    <glyph glyph-name="uni00CE" unicode="&#xce;" horiz-adv-x="297" 
d="M144 878l110 -95l50 40l-160 140l-160 -140l50 -40zM76 700v-700h146v700h-146z" />
    <glyph glyph-name="uni00CF" unicode="&#xcf;" horiz-adv-x="297" 
d="M-44 848q0 -32 22.5 -53t54.5 -21t55.5 21t23.5 53t-23.5 53t-55.5 21t-54.5 -21t-22.5 -53zM186 848q0 -32 23 -53t55 -21t55.5 21t23.5 53t-23.5 53t-55.5 21t-55 -21t-23 -53zM76 700v-700h146v700h-146z" />
    <glyph glyph-name="uni00D0" unicode="&#xd0;" horiz-adv-x="717" 
d="M5 305h71v-305h93h55h90q111 0 193.5 43t128.5 122t46 185q0 107 -46 185.5t-128.5 121.5t-193.5 43h-90h-55h-93v-303h-71v-92zM224 131v174h117v92h-117v172h86q62 0 112.5 -22.5t80.5 -71t30 -125.5t-30 -125.5t-80.5 -71t-112.5 -22.5h-86z" />
    <glyph glyph-name="Ntilde" unicode="&#xd1;" horiz-adv-x="787" 
d="M189 830l67 -55q0 8 3.5 20t14 21.5t29.5 9.5q24 0 44.5 -13t42 -25.5t48.5 -12.5q30 0 55 13t43.5 32t26.5 37l-63 65q-15 -24 -30.5 -38t-32.5 -14q-21 0 -35.5 7.5t-27.5 18t-29 18t-41 7.5q-43 0 -75 -27t-40 -64zM573 700v-423l-497 458v-735h140v423l496 -458v735
h-139z" />
    <glyph glyph-name="Ograve" unicode="&#xd2;" horiz-adv-x="812" 
d="M266 929l180 -150l74 39l-150 160zM36 350q0 -80 27.5 -147.5t77 -117t117 -77t148.5 -27.5t148.5 27.5t117 77t77 117t27.5 147.5t-27.5 146.5t-77.5 115.5t-117.5 75.5t-147.5 26.5q-79 0 -146.5 -26.5t-117.5 -75.5t-78 -115.5t-28 -146.5zM189 350q0 67 27.5 119
t76.5 81.5t113 29.5q66 0 114.5 -29.5t75.5 -81.5t27 -119t-27.5 -119t-76 -81.5t-113.5 -29.5q-64 0 -113 29.5t-76.5 81.5t-27.5 119z" />
    <glyph glyph-name="Oacute" unicode="&#xd3;" horiz-adv-x="812" 
d="M557 929l-104 49l-150 -160l74 -39zM36 350q0 -80 27.5 -147.5t77 -117t117 -77t148.5 -27.5t148.5 27.5t117 77t77 117t27.5 147.5t-27.5 146.5t-77.5 115.5t-117.5 75.5t-147.5 26.5q-79 0 -146.5 -26.5t-117.5 -75.5t-78 -115.5t-28 -146.5zM189 350q0 67 27.5 119
t76.5 81.5t113 29.5q66 0 114.5 -29.5t75.5 -81.5t27 -119t-27.5 -119t-76 -81.5t-113.5 -29.5q-64 0 -113 29.5t-76.5 81.5t-27.5 119z" />
    <glyph glyph-name="uni00D4" unicode="&#xd4;" horiz-adv-x="812" 
d="M413 878l110 -95l50 40l-160 140l-160 -140l50 -40zM36 350q0 -80 27.5 -147.5t77 -117t117 -77t148.5 -27.5t148.5 27.5t117 77t77 117t27.5 147.5t-27.5 146.5t-77.5 115.5t-117.5 75.5t-147.5 26.5q-79 0 -146.5 -26.5t-117.5 -75.5t-78 -115.5t-28 -146.5zM189 350
q0 67 27.5 119t76.5 81.5t113 29.5q66 0 114.5 -29.5t75.5 -81.5t27 -119t-27.5 -119t-76 -81.5t-113.5 -29.5q-64 0 -113 29.5t-76.5 81.5t-27.5 119z" />
    <glyph glyph-name="Otilde" unicode="&#xd5;" horiz-adv-x="812" 
d="M243 832l53 -37q0 8 4 20t15 21.5t31 9.5q23 0 39.5 -11.5t35.5 -23.5t46 -12q38 0 66 22.5t40 50.5l-46 43q-30 -48 -56 -48q-20 0 -33 7t-24.5 16.5t-27 16.5t-39.5 7q-34 0 -65 -22.5t-39 -59.5zM36 350q0 -80 27.5 -147.5t77 -117t117 -77t148.5 -27.5t148.5 27.5
t117 77t77 117t27.5 147.5t-27.5 146.5t-77.5 115.5t-117.5 75.5t-147.5 26.5q-79 0 -146.5 -26.5t-117.5 -75.5t-78 -115.5t-28 -146.5zM189 350q0 67 27.5 119t76.5 81.5t113 29.5q66 0 114.5 -29.5t75.5 -81.5t27 -119t-27.5 -119t-76 -81.5t-113.5 -29.5
q-64 0 -113 29.5t-76.5 81.5t-27.5 119z" />
    <glyph glyph-name="Odieresis" unicode="&#xd6;" horiz-adv-x="812" 
d="M212 848q0 -32 23.5 -53t55.5 -21t55 21t23 53t-23 53t-55 21t-55.5 -21t-23.5 -53zM443 848q0 -32 23 -53t55 -21t55.5 21t23.5 53t-23.5 53t-55.5 21t-55 -21t-23 -53zM36 350q0 -80 27.5 -147.5t77 -117t117 -77t148.5 -27.5t148.5 27.5t117 77t77 117t27.5 147.5
t-27.5 146.5t-77.5 115.5t-117.5 75.5t-147.5 26.5q-79 0 -146.5 -26.5t-117.5 -75.5t-78 -115.5t-28 -146.5zM189 350q0 67 27.5 119t76.5 81.5t113 29.5q66 0 114.5 -29.5t75.5 -81.5t27 -119t-27.5 -119t-76 -81.5t-113.5 -29.5q-64 0 -113 29.5t-76.5 81.5t-27.5 119z
" />
    <glyph glyph-name="uni00D7" unicode="&#xd7;" horiz-adv-x="596" 
d="M134 9l164 168l164 -168l82 82l-168 164l168 164l-82 82l-164 -168l-164 168l-82 -82l168 -164l-168 -164z" />
    <glyph glyph-name="Oslash" unicode="&#xd8;" horiz-adv-x="790" 
d="M695 754l-82 -97q-43 27 -95.5 42t-111.5 15q-80 0 -147.5 -26.5t-117.5 -75.5t-77.5 -115.5t-27.5 -146.5q0 -76 25.5 -141.5t71.5 -114.5l-86 -100l66 -48l82 96q44 -29 97.5 -45t113.5 -16q80 0 147.5 27.5t117.5 77t77.5 117t27.5 147.5q0 77 -26 142.5t-73 113.5
l85 100zM581 494q42 -59 42 -144q0 -68 -27.5 -120t-76 -81t-113.5 -29q-34 0 -63 8.5t-54 23.5zM521 550l-291 -342q-19 29 -30 65t-11 77q0 68 27.5 120t76.5 81t113 29q33 0 62 -8t53 -22z" />
    <glyph glyph-name="uni00D9" unicode="&#xd9;" horiz-adv-x="678" 
d="M187 924l180 -150l74 39l-150 160zM71 700v-470q0 -82 35 -138.5t95.5 -85.5t137.5 -29t138 29t96 85.5t35 138.5v470h-144v-461q0 -58 -31.5 -95t-93.5 -37q-61 0 -92.5 37t-31.5 95v461h-144z" />
    <glyph glyph-name="uni00DA" unicode="&#xda;" horiz-adv-x="678" 
d="M491 924l-103 49l-150 -160l73 -39zM71 700v-470q0 -82 35 -138.5t95.5 -85.5t137.5 -29t138 29t96 85.5t35 138.5v470h-144v-461q0 -58 -31.5 -95t-93.5 -37q-61 0 -92.5 37t-31.5 95v461h-144z" />
    <glyph glyph-name="uni00DB" unicode="&#xdb;" horiz-adv-x="678" 
d="M339 863l97 -89l90 62l-187 140l-186 -140l90 -62zM71 700v-470q0 -82 35 -138.5t95.5 -85.5t137.5 -29t138 29t96 85.5t35 138.5v470h-144v-461q0 -58 -31.5 -95t-93.5 -37q-61 0 -92.5 37t-31.5 95v461h-144z" />
    <glyph glyph-name="Udieresis" unicode="&#xdc;" horiz-adv-x="678" 
d="M132 848q0 -32 23.5 -53t55.5 -21t55 21t23 53t-23 53t-55 21t-55.5 -21t-23.5 -53zM390 848q0 -32 23 -53t55 -21t55 21t23 53t-23 53t-55 21t-55 -21t-23 -53zM71 700v-470q0 -82 35 -138.5t95.5 -85.5t137.5 -29t138 29t96 85.5t35 138.5v470h-144v-461
q0 -58 -31.5 -95t-93.5 -37q-61 0 -92.5 37t-31.5 95v461h-144z" />
    <glyph glyph-name="uni00DD" unicode="&#xdd;" horiz-adv-x="630" 
d="M465 700l-150 -281l-149 281h-165l241 -411v-289h147v290l241 410h-165zM467 924l-103 49l-150 -160l73 -39z" />
    <glyph glyph-name="uni00DE" unicode="&#xde;" horiz-adv-x="594" 
d="M80 700v-700h129v131h90q125 0 193.5 59t68.5 162q0 104 -68.5 162.5t-193.5 58.5h-90v127h-129zM209 249v207h90q61 0 96 -24.5t35 -79.5t-35 -79t-96 -24h-90z" />
    <glyph glyph-name="uni00DF" unicode="&#xdf;" horiz-adv-x="585" 
d="M279 109v-119q81 0 143.5 28t98 80.5t35.5 126.5q0 76 -41 131.5t-109 84.5q105 47 105 165q0 82 -58 135t-169 53q-59 0 -109.5 -22.5t-81.5 -64.5t-31 -101v-606h127v593q0 41 26.5 61.5t68.5 20.5q51 0 75.5 -24t24.5 -64q0 -35 -26 -62t-95 -27v-29v-53v-37
q55 0 90.5 -18.5t53 -48.5t17.5 -64q0 -42 -19.5 -73t-52.5 -48.5t-73 -17.5z" />
    <glyph glyph-name="uni00E0" unicode="&#xe0;" horiz-adv-x="526" 
d="M99 682l180 -150l74 39l-150 160zM115 328q17 11 56 27t88 16q38 0 62 -18t24 -49v-52q-22 11 -53 20t-68 9q-86 0 -142 -40t-56 -114q0 -64 45 -100.5t119 -36.5q52 0 93.5 19.5t61.5 56.5v-66h126v326q0 70 -57 108t-146 38q-62 0 -113.5 -17.5t-86.5 -36.5zM157 137
q0 32 24 50t69 18q56 0 95 -20v-1q0 -58 -33 -80.5t-80 -22.5q-35 0 -55 14t-20 42z" />
    <glyph glyph-name="uni00E1" unicode="&#xe1;" horiz-adv-x="526" 
d="M437 682l-104 49l-150 -160l74 -39zM115 328q17 11 56 27t88 16q38 0 62 -18t24 -49v-52q-22 11 -53 20t-68 9q-86 0 -142 -40t-56 -114q0 -64 45 -100.5t119 -36.5q52 0 93.5 19.5t61.5 56.5v-66h126v326q0 70 -57 108t-146 38q-62 0 -113.5 -17.5t-86.5 -36.5zM157 137
q0 32 24 50t69 18q56 0 95 -20v-1q0 -58 -33 -80.5t-80 -22.5q-35 0 -55 14t-20 42z" />
    <glyph glyph-name="uni00E2" unicode="&#xe2;" horiz-adv-x="526" 
d="M268 621l97 -89l89 62l-186 140l-187 -140l90 -62zM115 328q17 11 56 27t88 16q38 0 62 -18t24 -49v-52q-22 11 -53 20t-68 9q-86 0 -142 -40t-56 -114q0 -64 45 -100.5t119 -36.5q52 0 93.5 19.5t61.5 56.5v-66h126v326q0 70 -57 108t-146 38q-62 0 -113.5 -17.5
t-86.5 -36.5zM157 137q0 32 24 50t69 18q56 0 95 -20v-1q0 -58 -33 -80.5t-80 -22.5q-35 0 -55 14t-20 42z" />
    <glyph glyph-name="atilde" unicode="&#xe3;" horiz-adv-x="526" 
d="M81 589l66 -54q0 8 4 20t14.5 21.5t29.5 9.5q24 0 44 -13t41.5 -26t48.5 -13q30 0 55.5 13t44 32t26.5 37l-64 65q-15 -24 -30 -37.5t-32 -13.5q-21 0 -35.5 7.5t-27.5 17.5t-29 17.5t-41 7.5q-43 0 -75 -27t-40 -64zM115 328q17 11 56 27t88 16q38 0 62 -18t24 -49v-52
q-22 11 -53 20t-68 9q-86 0 -142 -40t-56 -114q0 -64 45 -100.5t119 -36.5q52 0 93.5 19.5t61.5 56.5v-66h126v326q0 70 -57 108t-146 38q-62 0 -113.5 -17.5t-86.5 -36.5zM157 137q0 32 24 50t69 18q56 0 95 -20v-1q0 -58 -33 -80.5t-80 -22.5q-35 0 -55 14t-20 42z" />
    <glyph glyph-name="uni00E4" unicode="&#xe4;" horiz-adv-x="526" 
d="M74 606q0 -32 23 -53t55 -21t55.5 21t23.5 53t-23.5 53t-55.5 21t-55 -21t-23 -53zM305 606q0 -32 23 -53t55 -21t55.5 21t23.5 53t-23.5 53t-55.5 21t-55 -21t-23 -53zM115 328q17 11 56 27t88 16q38 0 62 -18t24 -49v-52q-22 11 -53 20t-68 9q-86 0 -142 -40t-56 -114
q0 -64 45 -100.5t119 -36.5q52 0 93.5 19.5t61.5 56.5v-66h126v326q0 70 -57 108t-146 38q-62 0 -113.5 -17.5t-86.5 -36.5zM157 137q0 32 24 50t69 18q56 0 95 -20v-1q0 -58 -33 -80.5t-80 -22.5q-35 0 -55 14t-20 42z" />
    <glyph glyph-name="aring" unicode="&#xe5;" horiz-adv-x="526" 
d="M220 643q0 23 14 36.5t33 13.5t33.5 -13.5t14.5 -36.5t-14.5 -36t-33.5 -13t-33 13t-14 36zM150 643q0 -49 34.5 -80t82.5 -31t83.5 31t35.5 80q0 50 -35.5 80.5t-83.5 30.5t-82.5 -30.5t-34.5 -80.5zM115 328q17 11 56 27t88 16q38 0 62 -18t24 -49v-52q-22 11 -53 20
t-68 9q-86 0 -142 -40t-56 -114q0 -64 45 -100.5t119 -36.5q52 0 93.5 19.5t61.5 56.5v-66h126v326q0 70 -57 108t-146 38q-62 0 -113.5 -17.5t-86.5 -36.5zM157 137q0 32 24 50t69 18q56 0 95 -20v-1q0 -58 -33 -80.5t-80 -22.5q-35 0 -55 14t-20 42z" />
    <glyph glyph-name="uni00E6" unicode="&#xe6;" horiz-adv-x="875" 
d="M115 328q17 11 56 27t88 16q38 0 62 -20.5t24 -51.5v-47q-22 11 -53 20t-68 9q-86 0 -142 -40t-56 -114q0 -64 50 -100.5t139 -36.5q77 0 127 28t63 80q24 -49 72 -78.5t123 -29.5q96 0 150.5 35.5t88.5 94.5l-115 35q-18 -31 -48 -48.5t-74 -17.5q-46 0 -78 27t-39 85
h354q1 11 1.5 20t0.5 15q0 73 -28.5 125t-78.5 80.5t-114 28.5q-68 0 -117.5 -26t-78.5 -71q-10 47 -47 73t-109 26q-62 0 -113.5 -17.5t-86.5 -36.5zM157 137q0 32 24 50t69 18q56 0 95 -20v-1q0 -58 -33 -80.5t-80 -22.5q-35 0 -55 14t-20 42zM701 281h-214q7 47 37.5 72
t74.5 25q46 0 71 -25.5t31 -71.5z" />
    <glyph glyph-name="uni00E7" unicode="&#xe7;" horiz-adv-x="489" 
d="M164 230q0 38 17.5 68t48 47.5t67.5 17.5q42 0 82.5 -20t59.5 -53v134q-24 20 -62.5 33t-88.5 13q-74 0 -132.5 -30t-92 -84t-33.5 -126q0 -88 51 -149.5t133 -81.5l-58 -126q23 11 45.5 14t29.5 3q24 0 41 -6.5t17 -26.5q0 -37 -53 -37q-16 0 -35.5 6t-36.5 19l-42 -60
q31 -22 61 -30.5t67 -8.5q31 0 59 12t46 35.5t18 57.5q0 31 -13.5 50.5t-33 29.5t-38.5 10h-14.5t-14.5 -2l34 51q48 1 85.5 13.5t60.5 33.5v133q-19 -33 -57.5 -53t-84.5 -20q-56 0 -94.5 36t-38.5 97z" />
    <glyph glyph-name="uni00E8" unicode="&#xe8;" horiz-adv-x="556" 
d="M125 686l180 -150l74 39l-150 160zM166 201h354q1 11 1.5 20t0.5 15q0 109 -62.5 171.5t-176.5 62.5q-106 0 -169 -53t-77 -138q-2 -12 -3 -24t-1 -25q0 -69 30 -123.5t85.5 -85.5t133.5 -31q96 0 150 35.5t88 94.5l-114 35q-18 -31 -48.5 -48.5t-74.5 -17.5
q-46 0 -78 27t-39 85zM168 281q7 47 38 72t75 25q47 0 71.5 -26t29.5 -71h-214z" />
    <glyph glyph-name="eacute" unicode="&#xe9;" horiz-adv-x="556" 
d="M452 686l-104 49l-150 -160l74 -39zM166 201h354q1 11 1.5 20t0.5 15q0 109 -62.5 171.5t-176.5 62.5q-106 0 -169 -53t-77 -138q-2 -12 -3 -24t-1 -25q0 -69 30 -123.5t85.5 -85.5t133.5 -31q96 0 150 35.5t88 94.5l-114 35q-18 -31 -48.5 -48.5t-74.5 -17.5
q-46 0 -78 27t-39 85zM168 281q7 47 38 72t75 25q47 0 71.5 -26t29.5 -71h-214z" />
    <glyph glyph-name="ecircumflex" unicode="&#xea;" horiz-adv-x="556" 
d="M283 619l97 -89l89 62l-186 140l-187 -140l90 -62zM166 201h354q1 11 1.5 20t0.5 15q0 109 -62.5 171.5t-176.5 62.5q-106 0 -169 -53t-77 -138q-2 -12 -3 -24t-1 -25q0 -69 30 -123.5t85.5 -85.5t133.5 -31q96 0 150 35.5t88 94.5l-114 35q-18 -31 -48.5 -48.5
t-74.5 -17.5q-46 0 -78 27t-39 85zM168 281q7 47 38 72t75 25q47 0 71.5 -26t29.5 -71h-214z" />
    <glyph glyph-name="edieresis" unicode="&#xeb;" horiz-adv-x="556" 
d="M89 604q0 -32 23 -53t55 -21t55.5 21t23.5 53t-23.5 53t-55.5 21t-55 -21t-23 -53zM320 604q0 -32 23 -53t55 -21t55.5 21t23.5 53t-23.5 53t-55.5 21t-55 -21t-23 -53zM166 201h354q1 11 1.5 20t0.5 15q0 109 -62.5 171.5t-176.5 62.5q-106 0 -169 -53t-77 -138
q-2 -12 -3 -24t-1 -25q0 -69 30 -123.5t85.5 -85.5t133.5 -31q96 0 150 35.5t88 94.5l-114 35q-18 -31 -48.5 -48.5t-74.5 -17.5q-46 0 -78 27t-39 85zM168 281q7 47 38 72t75 25q47 0 71.5 -26t29.5 -71h-214z" />
    <glyph glyph-name="uni00EC" unicode="&#xec;" horiz-adv-x="271" 
d="M-39 692l180 -150l74 38l-150 160zM72 460v-460h127v460h-127z" />
    <glyph glyph-name="uni00ED" unicode="&#xed;" horiz-adv-x="271" 
d="M304 692l-104 48l-150 -160l74 -38zM72 460v-460h127v460h-127z" />
    <glyph glyph-name="uni00EE" unicode="&#xee;" horiz-adv-x="271" 
d="M135 624l97 -88l90 62l-187 140l-186 -140l89 -62zM72 460v-460h127v460h-127z" />
    <glyph glyph-name="uni00EF" unicode="&#xef;" horiz-adv-x="271" 
d="M-58 621q0 -32 23 -53t55 -21t55.5 21t23.5 53t-23.5 53t-55.5 21t-55 -21t-23 -53zM173 621q0 -32 23 -53t55 -21t55 21t23 53t-23 53t-55 21t-55 -21t-23 -53zM72 460v-460h127v460h-127z" />
    <glyph glyph-name="uni00F0" unicode="&#xf0;" horiz-adv-x="642" 
d="M142 520h136l52 -62q-14 6 -30 8t-36 2q-53 0 -102.5 -28t-80.5 -79t-31 -120q0 -82 36.5 -139t98 -86.5t136.5 -29.5t136.5 29.5t98 86.5t36.5 139q0 53 -20 97.5t-50 82.5l-76 99h93v74h-149l-80 104h-183l88 -104h-73v-74zM450 241q0 -58 -36.5 -94.5t-92.5 -36.5
q-55 0 -92 36.5t-37 94.5q0 59 37 96t92 37q56 0 92.5 -37t36.5 -96z" />
    <glyph glyph-name="uni00F1" unicode="&#xf1;" horiz-adv-x="560" 
d="M94 588l65 -55q0 8 4 20t15 21.5t30 9.5q24 0 44 -13t41 -25.5t48 -12.5q30 0 55.5 12.5t44.5 31.5t27 37l-64 65q-15 -24 -30.5 -37.5t-32.5 -13.5q-21 0 -35.5 7.5t-27.5 17.5t-29 17.5t-41 7.5q-43 0 -74.5 -26.5t-39.5 -63.5zM361 280v-280h135v294q0 86 -40.5 131
t-121.5 45q-47 0 -82 -20t-57 -54v64h-131v-460h131v280q0 43 24.5 68t65.5 25t58.5 -23.5t17.5 -69.5z" />
    <glyph glyph-name="uni00F2" unicode="&#xf2;" horiz-adv-x="576" 
d="M128 692l180 -150l74 38l-150 160zM167 230q0 59 35 94.5t86 35.5t86.5 -35.5t35.5 -94.5q0 -58 -35.5 -94t-86.5 -36t-86 36t-35 94zM33 230q0 -71 33.5 -125.5t91 -84.5t130.5 -30t131 30t91.5 84.5t33.5 125.5q0 72 -33.5 126t-91.5 84t-131 30t-130.5 -30t-91 -84
t-33.5 -126z" />
    <glyph glyph-name="uni00F3" unicode="&#xf3;" horiz-adv-x="576" 
d="M448 692l-103 48l-150 -160l73 -38zM167 230q0 59 35 94.5t86 35.5t86.5 -35.5t35.5 -94.5q0 -58 -35.5 -94t-86.5 -36t-86 36t-35 94zM33 230q0 -71 33.5 -125.5t91 -84.5t130.5 -30t131 30t91.5 84.5t33.5 125.5q0 72 -33.5 126t-91.5 84t-131 30t-130.5 -30t-91 -84
t-33.5 -126z" />
    <glyph glyph-name="ocircumflex" unicode="&#xf4;" horiz-adv-x="576" 
d="M288 630l97 -88l90 62l-187 140l-186 -140l90 -62zM167 230q0 59 35 94.5t86 35.5t86.5 -35.5t35.5 -94.5q0 -58 -35.5 -94t-86.5 -36t-86 36t-35 94zM33 230q0 -71 33.5 -125.5t91 -84.5t130.5 -30t131 30t91.5 84.5t33.5 125.5q0 72 -33.5 126t-91.5 84t-131 30
t-130.5 -30t-91 -84t-33.5 -126z" />
    <glyph glyph-name="uni00F5" unicode="&#xf5;" horiz-adv-x="576" 
d="M101 588l67 -55q0 8 3.5 20t14 21.5t29.5 9.5q24 0 44.5 -13t42 -25.5t48.5 -12.5q30 0 55 12.5t43.5 31.5t26.5 37l-63 65q-15 -24 -30.5 -37.5t-32.5 -13.5q-21 0 -35.5 7.5t-27.5 17.5t-29 17.5t-41 7.5q-43 0 -75 -26.5t-40 -63.5zM167 230q0 59 35 94.5t86 35.5
t86.5 -35.5t35.5 -94.5q0 -58 -35.5 -94t-86.5 -36t-86 36t-35 94zM33 230q0 -71 33.5 -125.5t91 -84.5t130.5 -30t131 30t91.5 84.5t33.5 125.5q0 72 -33.5 126t-91.5 84t-131 30t-130.5 -30t-91 -84t-33.5 -126z" />
    <glyph glyph-name="uni00F6" unicode="&#xf6;" horiz-adv-x="576" 
d="M95 621q0 -32 23 -53t55 -21t55 21t23 53t-23 53t-55 21t-55 -21t-23 -53zM325 621q0 -32 23.5 -53t55.5 -21t55 21t23 53t-23 53t-55 21t-55.5 -21t-23.5 -53zM167 230q0 59 35 94.5t86 35.5t86.5 -35.5t35.5 -94.5q0 -58 -35.5 -94t-86.5 -36t-86 36t-35 94zM33 230
q0 -71 33.5 -125.5t91 -84.5t130.5 -30t131 30t91.5 84.5t33.5 125.5q0 72 -33.5 126t-91.5 84t-131 30t-130.5 -30t-91 -84t-33.5 -126z" />
    <glyph glyph-name="uni00F7" unicode="&#xf7;" horiz-adv-x="634" 
d="M36 249h561v120h-561v-120zM234 90q0 -34 23.5 -58t59.5 -24t59 24t23 58t-23 57.5t-59 23.5t-59.5 -23.5t-23.5 -57.5zM234 523q0 -34 23.5 -58t59.5 -24t59 24t23 58t-23 57.5t-59 23.5t-59.5 -23.5t-23.5 -57.5z" />
    <glyph glyph-name="uni00F8" unicode="&#xf8;" horiz-adv-x="546" 
d="M451 504l-43 -58q-52 24 -120 24q-72 0 -129.5 -29t-91.5 -83t-34 -128q0 -58 21.5 -103.5t58.5 -77.5l-52 -69l54 -28l48 65q28 -13 59.5 -20t65.5 -7q72 0 130 29t92 83t34 128q0 60 -23 107t-62 78l46 61zM388 318q14 -17 22.5 -39.5t8.5 -48.5q0 -62 -38.5 -98
t-92.5 -36q-31 0 -57 12zM339 354l-155 -209q-12 17 -19 38.5t-7 46.5q0 39 17.5 69.5t47 47.5t65.5 17q28 0 51 -10z" />
    <glyph glyph-name="uni00F9" unicode="&#xf9;" horiz-adv-x="560" 
d="M142 692l180 -150l74 38l-150 160zM199 180v280h-135v-294q0 -86 40.5 -131t121.5 -45q47 0 82.5 20.5t57.5 54.5v-65h130v460h-130v-280q0 -43 -25 -68t-66 -25q-40 0 -58 23.5t-18 69.5z" />
    <glyph glyph-name="uni00FA" unicode="&#xfa;" horiz-adv-x="560" 
d="M417 692l-103 48l-150 -160l73 -38zM199 180v280h-135v-294q0 -86 40.5 -131t121.5 -45q47 0 82.5 20.5t57.5 54.5v-65h130v460h-130v-280q0 -43 -25 -68t-66 -25q-40 0 -58 23.5t-18 69.5z" />
    <glyph glyph-name="ucircumflex" unicode="&#xfb;" horiz-adv-x="560" 
d="M280 630l96 -88l90 62l-186 140l-187 -140l90 -62zM199 180v280h-135v-294q0 -86 40.5 -131t121.5 -45q47 0 82.5 20.5t57.5 54.5v-65h130v460h-130v-280q0 -43 -25 -68t-66 -25q-40 0 -58 23.5t-18 69.5z" />
    <glyph glyph-name="udieresis" unicode="&#xfc;" horiz-adv-x="560" 
d="M87 616q0 -32 23 -53t55 -21t55.5 21t23.5 53t-23.5 52.5t-55.5 20.5t-55 -20.5t-23 -52.5zM318 616q0 -32 22.5 -53t54.5 -21t55.5 21t23.5 53t-23.5 52.5t-55.5 20.5t-54.5 -20.5t-22.5 -52.5zM199 180v280h-135v-294q0 -86 40.5 -131t121.5 -45q47 0 82.5 20.5
t57.5 54.5v-65h130v460h-130v-280q0 -43 -25 -68t-66 -25q-40 0 -58 23.5t-18 69.5z" />
    <glyph glyph-name="yacute" unicode="&#xfd;" horiz-adv-x="497" 
d="M401 692l-104 48l-150 -160l74 -38zM504 460h-136l-114 -285l-115 285h-146l193 -415l-116 -265h134z" />
    <glyph glyph-name="thorn" unicode="&#xfe;" 
d="M434 230q0 -61 -37 -96.5t-87 -35.5q-28 0 -55.5 15.5t-45 45t-17.5 71.5t17.5 71.5t45 45t55.5 15.5q50 0 87 -35t37 -97zM570 230q0 77 -31 130.5t-81.5 81.5t-108.5 28q-103 0 -157 -84v394h-131v-1000h131v294q54 -84 157 -84q58 0 108.5 28t81.5 82t31 130z" />
    <glyph glyph-name="uni00FF" unicode="&#xff;" horiz-adv-x="497" 
d="M55 604q0 -32 23 -53t55 -21t55.5 21t23.5 53t-23.5 53t-55.5 21t-55 -21t-23 -53zM286 604q0 -32 23 -53t55 -21t55 21t23 53t-23 53t-55 21t-55 -21t-23 -53zM504 460h-136l-114 -285l-115 285h-146l193 -415l-116 -265h134z" />
    <glyph glyph-name="uni0100" unicode="&#x100;" horiz-adv-x="712" 
d="M174 802h365v114h-365v-114zM236 157h239l74 -157h163l-356 742l-355 -742h163zM270 272l86 200l86 -200h-172z" />
    <glyph glyph-name="uni0101" unicode="&#x101;" horiz-adv-x="526" 
d="M85 543h366v115h-366v-115zM115 328q17 11 56 27t88 16q38 0 62 -18t24 -49v-52q-22 11 -53 20t-68 9q-86 0 -142 -40t-56 -114q0 -64 45 -100.5t119 -36.5q52 0 93.5 19.5t61.5 56.5v-66h126v326q0 70 -57 108t-146 38q-62 0 -113.5 -17.5t-86.5 -36.5zM157 137
q0 32 24 50t69 18q56 0 95 -20v-1q0 -58 -33 -80.5t-80 -22.5q-35 0 -55 14t-20 42z" />
    <glyph glyph-name="uni0102" unicode="&#x102;" horiz-adv-x="712" 
d="M194 946q0 -39 18.5 -71.5t55 -52.5t88.5 -20q53 0 89 20t55 52.5t19 71.5h-91q0 -25 -18 -44.5t-54 -19.5t-53.5 19.5t-17.5 44.5h-91zM236 157h239l74 -157h163l-356 742l-355 -742h163zM270 272l86 200l86 -200h-172z" />
    <glyph glyph-name="uni0103" unicode="&#x103;" horiz-adv-x="526" 
d="M105 677q0 -39 19 -72t55.5 -53t88.5 -20q53 0 89 20t54.5 53t18.5 72h-91q0 -25 -17.5 -44.5t-53.5 -19.5t-54 19.5t-18 44.5h-91zM115 328q17 11 56 27t88 16q38 0 62 -18t24 -49v-52q-22 11 -53 20t-68 9q-86 0 -142 -40t-56 -114q0 -64 45 -100.5t119 -36.5
q52 0 93.5 19.5t61.5 56.5v-66h126v326q0 70 -57 108t-146 38q-62 0 -113.5 -17.5t-86.5 -36.5zM157 137q0 32 24 50t69 18q56 0 95 -20v-1q0 -58 -33 -80.5t-80 -22.5q-35 0 -55 14t-20 42z" />
    <glyph glyph-name="uni0104" unicode="&#x104;" horiz-adv-x="712" 
d="M682 -117q-10 -10 -21.5 -15t-28.5 -5q-39 0 -39 41q0 25 22.5 51t61.5 45h35l-356 742l-355 -742h163l72 157h239l74 -157h43q-38 -24 -65 -53.5t-27 -66.5q0 -47 32.5 -73.5t85.5 -26.5q39 0 62.5 12.5t34.5 27.5zM270 272l86 200l86 -200h-172z" />
    <glyph glyph-name="aogonek" unicode="&#x105;" horiz-adv-x="526" 
d="M454 -117q-10 -10 -21.5 -15t-28.5 -5q-39 0 -39 41q0 25 22.5 51t61.5 45h22v326q0 70 -57 108t-146 38q-62 0 -113.5 -17.5t-86.5 -36.5l47 -90q17 11 56 27t88 16q38 0 62 -18t24 -49v-52q-22 11 -53 20t-68 9q-91 0 -144.5 -40t-53.5 -110q0 -69 46.5 -105t117.5 -36
q52 0 93.5 19.5t61.5 56.5v-66h19q-38 -24 -65 -53.5t-27 -66.5q0 -47 32.5 -73.5t85.5 -26.5q39 0 62.5 12.5t34.5 27.5zM157 137q0 32 24 50t69 18q56 0 95 -20v-1q0 -58 -33 -80.5t-80 -22.5q-31 0 -53 14t-22 42z" />
    <glyph glyph-name="Cacute" unicode="&#x106;" horiz-adv-x="696" 
d="M540 924l-104 49l-150 -160l74 -39zM192 350q0 70 31.5 120.5t82.5 78t111 27.5q74 0 126 -28t87 -68v162q-43 35 -93 53.5t-127 18.5q-81 0 -149.5 -26.5t-118.5 -74.5t-78 -115t-28 -148t28 -148t78 -115t118.5 -74.5t149.5 -26.5q77 0 127 19t93 53v162
q-35 -40 -87 -68t-126 -28q-60 0 -111 27.5t-82.5 78.5t-31.5 120z" />
    <glyph glyph-name="cacute" unicode="&#x107;" horiz-adv-x="489" 
d="M418 680l-104 49l-150 -160l74 -39zM164 230q0 38 17.5 68t48 47.5t67.5 17.5q42 0 82.5 -20t59.5 -53v134q-24 20 -62.5 33t-88.5 13q-74 0 -132.5 -30t-92 -84t-33.5 -126q0 -71 33.5 -125.5t92 -84.5t132.5 -30q50 0 88.5 12.5t62.5 34.5v133q-19 -33 -57.5 -53
t-84.5 -20q-56 0 -94.5 36t-38.5 97z" />
    <glyph glyph-name="uni0108" unicode="&#x108;" horiz-adv-x="696" 
d="M410 863l97 -89l89 62l-186 140l-187 -140l90 -62zM192 350q0 70 31.5 120.5t82.5 78t111 27.5q74 0 126 -28t87 -68v162q-43 35 -93 53.5t-127 18.5q-81 0 -149.5 -26.5t-118.5 -74.5t-78 -115t-28 -148t28 -148t78 -115t118.5 -74.5t149.5 -26.5q77 0 127 19t93 53v162
q-35 -40 -87 -68t-126 -28q-60 0 -111 27.5t-82.5 78.5t-31.5 120z" />
    <glyph glyph-name="ccircumflex" unicode="&#x109;" horiz-adv-x="489" 
d="M266 619l97 -89l89 62l-186 140l-187 -140l90 -62zM164 230q0 38 17.5 68t48 47.5t67.5 17.5q42 0 82.5 -20t59.5 -53v134q-24 20 -62.5 33t-88.5 13q-74 0 -132.5 -30t-92 -84t-33.5 -126q0 -71 33.5 -125.5t92 -84.5t132.5 -30q50 0 88.5 12.5t62.5 34.5v133
q-19 -33 -57.5 -53t-84.5 -20q-56 0 -94.5 36t-38.5 97z" />
    <glyph glyph-name="uni010A" unicode="&#x10a;" horiz-adv-x="696" 
d="M314 848q0 -32 23 -53t55 -21t55.5 21t23.5 53t-23.5 53t-55.5 21t-55 -21t-23 -53zM192 350q0 70 31.5 120.5t82.5 78t111 27.5q74 0 126 -28t87 -68v162q-43 35 -93 53.5t-127 18.5q-81 0 -149.5 -26.5t-118.5 -74.5t-78 -115t-28 -148t28 -148t78 -115t118.5 -74.5
t149.5 -26.5q77 0 127 19t93 53v162q-35 -40 -87 -68t-126 -28q-60 0 -111 27.5t-82.5 78.5t-31.5 120z" />
    <glyph glyph-name="uni010B" unicode="&#x10b;" horiz-adv-x="489" 
d="M192 609q0 -32 23 -53t55 -21t55.5 21t23.5 53t-23.5 53t-55.5 21t-55 -21t-23 -53zM164 230q0 38 17.5 68t48 47.5t67.5 17.5q42 0 82.5 -20t59.5 -53v134q-24 20 -62.5 33t-88.5 13q-74 0 -132.5 -30t-92 -84t-33.5 -126q0 -71 33.5 -125.5t92 -84.5t132.5 -30
q50 0 88.5 12.5t62.5 34.5v133q-19 -33 -57.5 -53t-84.5 -20q-56 0 -94.5 36t-38.5 97z" />
    <glyph glyph-name="uni010C" unicode="&#x10c;" horiz-adv-x="696" 
d="M410 888l-97 88l-90 -62l187 -140l186 140l-89 62zM192 350q0 70 31.5 120.5t82.5 78t111 27.5q74 0 126 -28t87 -68v162q-43 35 -93 53.5t-127 18.5q-81 0 -149.5 -26.5t-118.5 -74.5t-78 -115t-28 -148t28 -148t78 -115t118.5 -74.5t149.5 -26.5q77 0 127 19t93 53v162
q-35 -40 -87 -68t-126 -28q-60 0 -111 27.5t-82.5 78.5t-31.5 120z" />
    <glyph glyph-name="uni010D" unicode="&#x10d;" horiz-adv-x="489" 
d="M266 644l-97 88l-90 -62l187 -140l186 140l-89 62zM164 230q0 38 17.5 68t48 47.5t67.5 17.5q42 0 82.5 -20t59.5 -53v134q-24 20 -62.5 33t-88.5 13q-74 0 -132.5 -30t-92 -84t-33.5 -126q0 -71 33.5 -125.5t92 -84.5t132.5 -30q50 0 88.5 12.5t62.5 34.5v133
q-19 -33 -57.5 -53t-84.5 -20q-56 0 -94.5 36t-38.5 97z" />
    <glyph glyph-name="uni010E" unicode="&#x10e;" horiz-adv-x="717" 
d="M362 888l-97 88l-89 -62l186 -140l186 140l-89 62zM169 0h55h90q111 0 193.5 43t128.5 122t46 185q0 107 -46 185.5t-128.5 121.5t-193.5 43h-90h-55h-93v-700h93zM224 131v438h86q62 0 112.5 -22.5t80.5 -71t30 -125.5t-30 -125.5t-80.5 -71t-112.5 -22.5h-86z" />
    <glyph glyph-name="uni010F" unicode="&#x10f;" 
d="M660 780l-88 -259l97 -23l121 250zM169 230q0 62 37 97t87 35q29 0 56 -15.5t44.5 -45t17.5 -71.5t-17.5 -71.5t-44.5 -45t-56 -15.5q-50 0 -87 35.5t-37 96.5zM33 230q0 -76 31 -130t81.5 -82t108.5 -28q103 0 157 84v-74h131v780h-131v-394q-54 84 -157 84
q-58 0 -108.5 -28t-81.5 -81.5t-31 -130.5z" />
    <glyph glyph-name="Dcroat" unicode="&#x110;" horiz-adv-x="717" 
d="M5 301h71v-301h93h55h90q111 0 193.5 43t128.5 122t46 185q0 107 -46 185.5t-128.5 121.5t-193.5 43h-90h-55h-93v-306h-71v-93zM224 131v170h112v93h-112v175h86q62 0 112.5 -22.5t80.5 -71t30 -125.5t-30 -125.5t-80.5 -71t-112.5 -22.5h-86z" />
    <glyph glyph-name="uni0111" unicode="&#x111;" 
d="M169 230q0 62 37 97t87 35q29 0 56 -15.5t44.5 -45t17.5 -71.5t-17.5 -71.5t-44.5 -45t-56 -15.5q-50 0 -87 35.5t-37 96.5zM33 230q0 -76 31 -130t81.5 -82t108.5 -28q103 0 157 84v-74h131v572h93v93h-93v115h-131v-115h-116v-93h116v-186q-54 84 -157 84
q-58 0 -108.5 -28t-81.5 -81.5t-31 -130.5z" />
    <glyph glyph-name="uni0112" unicode="&#x112;" horiz-adv-x="587" 
d="M116 774h365v115h-365v-115zM216 311h286v120h-286v147h306v122h-306h-47h-93v-700h93h47h306v122h-306v189z" />
    <glyph glyph-name="uni0113" unicode="&#x113;" horiz-adv-x="556" 
d="M100 530h366v115h-366v-115zM166 201h354q1 11 1.5 20t0.5 15q0 109 -62.5 171.5t-176.5 62.5q-106 0 -169 -53t-77 -138q-2 -12 -3 -24t-1 -25q0 -69 30 -123.5t85.5 -85.5t133.5 -31q96 0 150 35.5t88 94.5l-114 35q-18 -31 -48.5 -48.5t-74.5 -17.5q-46 0 -78 27
t-39 85zM168 281q7 47 38 72t75 25q47 0 71.5 -26t29.5 -71h-214z" />
    <glyph glyph-name="uni0114" unicode="&#x114;" horiz-adv-x="587" 
d="M136 919q0 -39 18.5 -72t55 -53t88.5 -20q53 0 89 20t55 53t19 72h-91q0 -25 -18 -44.5t-54 -19.5t-53.5 19.5t-17.5 44.5h-91zM216 311h286v120h-286v147h306v122h-306h-47h-93v-700h93h47h306v122h-306v189z" />
    <glyph glyph-name="ebreve" unicode="&#x115;" horiz-adv-x="556" 
d="M120 675q0 -39 19 -72t55.5 -53t88.5 -20q53 0 89 20t54.5 53t18.5 72h-91q0 -25 -17.5 -44.5t-53.5 -19.5t-54 19.5t-18 44.5h-91zM166 201h354q1 11 1.5 20t0.5 15q0 109 -62.5 171.5t-176.5 62.5q-106 0 -169 -53t-77 -138q-2 -12 -3 -24t-1 -25q0 -69 30 -123.5
t85.5 -85.5t133.5 -31q96 0 150 35.5t88 94.5l-114 35q-18 -31 -48.5 -48.5t-74.5 -17.5q-46 0 -78 27t-39 85zM168 281q7 47 38 72t75 25q47 0 71.5 -26t29.5 -71h-214z" />
    <glyph glyph-name="Edotaccent" unicode="&#x116;" horiz-adv-x="587" 
d="M220 848q0 -32 23 -53t55 -21t55.5 21t23.5 53t-23.5 53t-55.5 21t-55 -21t-23 -53zM216 311h286v120h-286v147h306v122h-306h-47h-93v-700h93h47h306v122h-306v189z" />
    <glyph glyph-name="uni0117" unicode="&#x117;" horiz-adv-x="556" 
d="M204 604q0 -32 23.5 -53t55.5 -21t55 21t23 53t-23 53t-55 21t-55.5 -21t-23.5 -53zM166 201h354q1 11 1.5 20t0.5 15q0 109 -62.5 171.5t-176.5 62.5q-106 0 -169 -53t-77 -138q-2 -12 -3 -24t-1 -25q0 -69 30 -123.5t85.5 -85.5t133.5 -31q96 0 150 35.5t88 94.5
l-114 35q-18 -31 -48.5 -48.5t-74.5 -17.5q-46 0 -78 27t-39 85zM168 281q7 47 38 72t75 25q47 0 71.5 -26t29.5 -71h-214z" />
    <glyph glyph-name="uni0118" unicode="&#x118;" horiz-adv-x="587" 
d="M389 -117q-10 -10 -21.5 -15t-28.5 -5q-39 0 -39 41q0 25 22.5 51t61.5 45h138v122h-306v189h286v120h-286v147h306v122h-306h-47h-93v-700h93h47h83q-38 -24 -65 -53.5t-27 -66.5q0 -47 32.5 -73.5t85.5 -26.5q39 0 62.5 12.5t34.5 27.5z" />
    <glyph glyph-name="uni0119" unicode="&#x119;" horiz-adv-x="556" 
d="M319 -112q-10 -10 -21.5 -15t-28.5 -5q-39 0 -39 42q0 20 15.5 41t42.5 39q93 2 145.5 37t86.5 93l-114 35q-18 -31 -48.5 -48.5t-74.5 -17.5q-46 0 -78 27t-39 85h354q1 11 1.5 20t0.5 15q0 109 -62.5 171.5t-176.5 62.5q-106 0 -169 -53t-77 -138q-2 -12 -3 -24t-1 -25
q0 -88 48 -151t135 -82q-34 -22 -57 -50t-23 -62q0 -47 33 -73.5t86 -26.5q39 0 62.5 12.5t34.5 27.5zM168 281q7 47 38 72t75 25q47 0 71.5 -26t29.5 -71h-214z" />
    <glyph glyph-name="uni011A" unicode="&#x11a;" horiz-adv-x="587" 
d="M298 888l-96 88l-90 -62l186 -140l187 140l-90 62zM216 311h286v120h-286v147h306v122h-306h-47h-93v-700h93h47h306v122h-306v189z" />
    <glyph glyph-name="uni011B" unicode="&#x11b;" horiz-adv-x="556" 
d="M283 644l-97 88l-90 -62l187 -140l186 140l-89 62zM166 201h354q1 11 1.5 20t0.5 15q0 109 -62.5 171.5t-176.5 62.5q-106 0 -169 -53t-77 -138q-2 -12 -3 -24t-1 -25q0 -69 30 -123.5t85.5 -85.5t133.5 -31q96 0 150 35.5t88 94.5l-114 35q-18 -31 -48.5 -48.5
t-74.5 -17.5q-46 0 -78 27t-39 85zM168 281q7 47 38 72t75 25q47 0 71.5 -26t29.5 -71h-214z" />
    <glyph glyph-name="Gcircumflex" unicode="&#x11c;" horiz-adv-x="802" 
d="M415 863l97 -89l89 62l-186 140l-187 -140l90 -62zM416 260h200q-17 -63 -66.5 -106.5t-134.5 -43.5q-65 0 -116.5 30t-81.5 84t-30 126q0 73 30.5 125.5t82.5 81t115 28.5q67 0 113 -28.5t72 -74.5l123 72q-48 73 -124.5 116.5t-183.5 43.5q-81 0 -150.5 -26t-120.5 -74
t-79.5 -115t-28.5 -149t27.5 -149.5t78 -116.5t119 -76t149.5 -27q87 0 154 31t112.5 85.5t67 126t18.5 151.5h-346v-115z" />
    <glyph glyph-name="gcircumflex" unicode="&#x11d;" horiz-adv-x="598" 
d="M303 619l96 -89l90 62l-186 140l-187 -140l90 -62zM169 234q0 62 37 95t87 33q29 0 56 -14.5t44.5 -43t17.5 -70.5t-17.5 -70t-44.5 -42.5t-56 -14.5q-50 0 -87 33t-37 94zM33 234q0 -76 31 -128.5t81.5 -79.5t108.5 -27q50 0 90.5 20.5t66.5 60.5v-70q0 -70 -37 -104.5
t-87 -34.5q-51 0 -82.5 26.5t-34.5 70.5h-128q6 -91 67 -148t182 -57q67 0 122.5 26t89.5 80.5t34 140.5v450h-126v-72q-54 82 -157 82q-58 0 -108.5 -27t-81.5 -79.5t-31 -129.5z" />
    <glyph glyph-name="Gbreve" unicode="&#x11e;" horiz-adv-x="802" 
d="M252 919q0 -39 19 -72t55.5 -53t88.5 -20q53 0 89 20t54.5 53t18.5 72h-91q0 -25 -17.5 -44.5t-53.5 -19.5t-54 19.5t-18 44.5h-91zM416 260h200q-17 -63 -66.5 -106.5t-134.5 -43.5q-65 0 -116.5 30t-81.5 84t-30 126q0 73 30.5 125.5t82.5 81t115 28.5q67 0 113 -28.5
t72 -74.5l123 72q-48 73 -124.5 116.5t-183.5 43.5q-81 0 -150.5 -26t-120.5 -74t-79.5 -115t-28.5 -149t27.5 -149.5t78 -116.5t119 -76t149.5 -27q87 0 154 31t112.5 85.5t67 126t18.5 151.5h-346v-115z" />
    <glyph glyph-name="gbreve" unicode="&#x11f;" horiz-adv-x="598" 
d="M140 675q0 -39 19 -72t55.5 -53t88.5 -20q53 0 89 20t54.5 53t18.5 72h-91q0 -25 -17.5 -44.5t-53.5 -19.5t-54 19.5t-18 44.5h-91zM169 234q0 62 37 95t87 33q29 0 56 -14.5t44.5 -43t17.5 -70.5t-17.5 -70t-44.5 -42.5t-56 -14.5q-50 0 -87 33t-37 94zM33 234
q0 -76 31 -128.5t81.5 -79.5t108.5 -27q50 0 90.5 20.5t66.5 60.5v-70q0 -70 -37 -104.5t-87 -34.5q-51 0 -82.5 26.5t-34.5 70.5h-128q6 -91 67 -148t182 -57q67 0 122.5 26t89.5 80.5t34 140.5v450h-126v-72q-54 82 -157 82q-58 0 -108.5 -27t-81.5 -79.5t-31 -129.5z" />
    <glyph glyph-name="uni0120" unicode="&#x120;" horiz-adv-x="802" 
d="M336 848q0 -32 23.5 -53t55.5 -21t55 21t23 53t-23 53t-55 21t-55.5 -21t-23.5 -53zM416 260h200q-17 -63 -66.5 -106.5t-134.5 -43.5q-65 0 -116.5 30t-81.5 84t-30 126q0 73 30.5 125.5t82.5 81t115 28.5q67 0 113 -28.5t72 -74.5l123 72q-48 73 -124.5 116.5
t-183.5 43.5q-81 0 -150.5 -26t-120.5 -74t-79.5 -115t-28.5 -149t27.5 -149.5t78 -116.5t119 -76t149.5 -27q87 0 154 31t112.5 85.5t67 126t18.5 151.5h-346v-115z" />
    <glyph glyph-name="uni0121" unicode="&#x121;" horiz-adv-x="598" 
d="M222 627q0 -32 23.5 -53t55.5 -21t55 21t23 53t-23 53t-55 21t-55.5 -21t-23.5 -53zM169 234q0 62 37 95t87 33q29 0 56 -14.5t44.5 -43t17.5 -70.5t-17.5 -70t-44.5 -42.5t-56 -14.5q-50 0 -87 33t-37 94zM33 234q0 -76 31 -128.5t81.5 -79.5t108.5 -27q50 0 90.5 20.5
t66.5 60.5v-70q0 -70 -37 -104.5t-87 -34.5q-51 0 -82.5 26.5t-34.5 70.5h-128q6 -91 67 -148t182 -57q67 0 122.5 26t89.5 80.5t34 140.5v450h-126v-72q-54 82 -157 82q-58 0 -108.5 -27t-81.5 -79.5t-31 -129.5z" />
    <glyph glyph-name="uni0122" unicode="&#x122;" horiz-adv-x="802" 
d="M367 -79l-88 -259l98 -23l121 250zM416 260h200q-17 -63 -66.5 -106.5t-134.5 -43.5q-65 0 -116.5 30t-81.5 84t-30 126q0 73 30.5 125.5t82.5 81t115 28.5q67 0 113 -28.5t72 -74.5l123 72q-48 73 -124.5 116.5t-183.5 43.5q-81 0 -150.5 -26t-120.5 -74t-79.5 -115
t-28.5 -149t27.5 -149.5t78 -116.5t119 -76t149.5 -27q87 0 154 31t112.5 85.5t67 126t18.5 151.5h-346v-115z" />
    <glyph glyph-name="Hcircumflex" unicode="&#x124;" horiz-adv-x="765" 
d="M383 863l97 -89l89 62l-186 140l-186 -140l89 -62zM76 700v-700h144v307h326v-307h144v700h-144v-262h-326v262h-144z" />
    <glyph glyph-name="uni0125" unicode="&#x125;" horiz-adv-x="555" 
d="M199 928l97 -88l90 62l-187 140l-186 -140l90 -62zM361 280v-280h131v299q0 86 -38.5 131t-119.5 45q-47 0 -82 -20t-57 -55v380h-131v-780h131v280q0 43 24.5 68t65.5 25t58.5 -23.5t17.5 -69.5z" />
    <glyph glyph-name="Itilde" unicode="&#x128;" horiz-adv-x="297" 
d="M-38 832l66 -55q0 8 4 20t14.5 21.5t29.5 9.5q24 0 44 -13t41.5 -25.5t48.5 -12.5q30 0 55.5 12.5t44 31.5t26.5 37l-63 65q-15 -24 -30.5 -37.5t-32.5 -13.5q-21 0 -35.5 7.5t-27.5 17.5t-29 17.5t-41 7.5q-43 0 -75 -26.5t-40 -63.5zM76 700v-700h146v700h-146z" />
    <glyph glyph-name="itilde" unicode="&#x129;" horiz-adv-x="271" 
d="M-51 588l65 -55q0 8 4 20t15 21.5t30 9.5q24 0 44 -13t41 -25.5t48 -12.5q30 0 55.5 12.5t44.5 31.5t27 37l-64 65q-15 -24 -30.5 -37.5t-32.5 -13.5q-21 0 -35.5 7.5t-27.5 17.5t-29 17.5t-41 7.5q-43 0 -74.5 -26.5t-39.5 -63.5zM72 460v-460h127v460h-127z" />
    <glyph glyph-name="uni012A" unicode="&#x12a;" horiz-adv-x="297" 
d="M-34 774h366v115h-366v-115zM76 700v-700h146v700h-146z" />
    <glyph glyph-name="imacron" unicode="&#x12b;" horiz-adv-x="271" 
d="M-47 530h365v115h-365v-115zM72 460v-460h127v460h-127z" />
    <glyph glyph-name="Ibreve" unicode="&#x12c;" horiz-adv-x="297" 
d="M-13 919q0 -39 18.5 -72t55 -53t88.5 -20q53 0 89 20t54.5 53t18.5 72h-90q0 -25 -18 -44.5t-54 -19.5t-54 19.5t-18 44.5h-90zM76 700v-700h146v700h-146z" />
    <glyph glyph-name="ibreve" unicode="&#x12d;" horiz-adv-x="271" 
d="M-27 675q0 -39 18.5 -72t55 -53t88.5 -20q53 0 89 20t55 53t19 72h-91q0 -25 -18 -44.5t-54 -19.5t-53.5 19.5t-17.5 44.5h-91zM72 460v-460h127v460h-127z" />
    <glyph glyph-name="uni012E" unicode="&#x12e;" horiz-adv-x="297" 
d="M209 -115q-10 -10 -21.5 -15t-28.5 -5q-39 0 -39 41q0 25 22 50t60 44h20v700h-146v-700h41q-38 -24 -64.5 -53t-26.5 -66q0 -47 33 -73.5t86 -26.5q39 0 62.5 12.5t34.5 27.5z" />
    <glyph glyph-name="uni012F" unicode="&#x12f;" horiz-adv-x="271" 
d="M186 -117q-10 -10 -21.5 -15t-28.5 -5q-39 0 -39 41q0 25 22.5 51t61.5 45h17v460h-126v-460h24q-38 -24 -65 -53.5t-27 -66.5q0 -47 32.5 -73.5t85.5 -26.5q39 0 62.5 12.5t34.5 27.5zM58 638q0 -31 22.5 -52.5t55.5 -21.5t55.5 21.5t22.5 52.5q0 32 -22.5 53t-55.5 21
t-55.5 -21t-22.5 -53z" />
    <glyph glyph-name="uni0130" unicode="&#x130;" horiz-adv-x="297" 
d="M70 848q0 -32 23 -53t55 -21t55.5 21t23.5 53t-23.5 53t-55.5 21t-55 -21t-23 -53zM76 700v-700h146v700h-146z" />
    <glyph glyph-name="uni0131" unicode="&#x131;" horiz-adv-x="271" 
d="M72 460v-460h127v460h-127z" />
    <glyph glyph-name="IJ" unicode="&#x132;" horiz-adv-x="584" 
d="M76 700v-700h146v700h-146zM210 -75l-78 -104q25 -18 70.5 -36t98.5 -18q58 0 105 18t75 57t28 102v756h-153v-726q0 -46 -21 -64.5t-44 -18.5q-24 0 -45.5 10t-35.5 24z" />
    <glyph glyph-name="ij" unicode="&#x133;" horiz-adv-x="534" 
d="M72 460v-460h127v460h-127zM57 638q0 -32 23.5 -53t55.5 -21t55 21t23 53t-23 53t-55 21t-55.5 -21t-23.5 -53zM240 -88l-56 -98q14 -15 42 -31t74 -16q80 0 121 42.5t41 121.5v529h-126v-499q0 -40 -12.5 -57.5t-35.5 -17.5q-13 0 -25 6t-23 20zM321 638q0 -32 23 -53
t55 -21t55 21t23 53t-23 53t-55 21t-55 -21t-23 -53z" />
    <glyph glyph-name="uni0134" unicode="&#x134;" horiz-adv-x="303" 
d="M152 863l96 -89l90 62l-186 140l-187 -140l90 -62zM-71 -75l-77 -104q25 -18 70 -36t98 -18q58 0 105 18t75 57t28 102v756h-152v-726q0 -46 -21.5 -64.5t-44.5 -18.5q-24 0 -45.5 10t-35.5 24z" />
    <glyph glyph-name="uni0135" unicode="&#x135;" horiz-adv-x="265" 
d="M130 619l96 -89l90 62l-186 140l-187 -140l90 -62zM-28 -88l-56 -98q14 -15 41.5 -31t73.5 -16q80 0 121 42.5t41 121.5v529h-126v-499q0 -40 -12.5 -57.5t-35.5 -17.5q-13 0 -24.5 6t-22.5 20z" />
    <glyph glyph-name="uni0136" unicode="&#x136;" horiz-adv-x="660" 
d="M328 -60l-88 -259l98 -23l121 250zM473 700l-249 -284v284h-148v-700h148v317l260 -317h175l-304 372l289 328h-171z" />
    <glyph glyph-name="uni0137" unicode="&#x137;" horiz-adv-x="536" 
d="M258 -60l-88 -259l97 -23l122 250zM356 460l-169 -162v482h-126v-780h126v234l190 -234h155l-217 270l197 190h-156z" />
    <glyph glyph-name="uni0138" unicode="&#x138;" horiz-adv-x="536" 
d="M356 460l-169 -162v162h-126v-460h126v234l190 -234h155l-217 270l197 190h-156z" />
    <glyph glyph-name="uni0139" unicode="&#x139;" horiz-adv-x="505" 
d="M440 924l-104 49l-150 -160l74 -39zM76 700v-700h423v126h-279v574h-144z" />
    <glyph glyph-name="uni013A" unicode="&#x13a;" horiz-adv-x="258" 
d="M282 990l-104 49l-150 -160l74 -39zM64 780v-780h131v780h-131z" />
    <glyph glyph-name="uni013B" unicode="&#x13b;" horiz-adv-x="505" 
d="M266 -60l-88 -259l98 -23l121 250zM76 700v-700h423v126h-279v574h-144z" />
    <glyph glyph-name="uni013C" unicode="&#x13c;" horiz-adv-x="258" 
d="M108 -60l-88 -259l98 -23l121 250zM64 780v-780h131v780h-131z" />
    <glyph glyph-name="uni013D" unicode="&#x13d;" horiz-adv-x="505" 
d="M387 714l-88 -259l98 -22l121 250zM76 700v-700h423v126h-279v574h-144z" />
    <glyph glyph-name="uni013E" unicode="&#x13e;" horiz-adv-x="258" 
d="M333 780l-88 -259l97 -23l121 250zM64 780v-780h131v780h-131z" />
    <glyph glyph-name="uni013F" unicode="&#x13f;" horiz-adv-x="505" 
d="M303 426q0 -34 23.5 -57.5t59.5 -23.5t59.5 23.5t23.5 57.5t-23.5 57.5t-59.5 23.5t-59.5 -23.5t-23.5 -57.5zM76 700v-700h423v126h-279v574h-144z" />
    <glyph glyph-name="uni0140" unicode="&#x140;" horiz-adv-x="445" 
d="M241 411q0 -34 23.5 -58t59.5 -24t59.5 24t23.5 58t-23.5 57.5t-59.5 23.5t-59.5 -23.5t-23.5 -57.5zM64 780v-780h131v780h-131z" />
    <glyph glyph-name="uni0141" unicode="&#x141;" horiz-adv-x="509" 
d="M76 700v-245l-104 -69l33 -68l71 47v-365h423v126h-279v335l121 80l-33 68l-88 -58v149h-144z" />
    <glyph glyph-name="uni0142" unicode="&#x142;" horiz-adv-x="258" 
d="M64 780v-329l-101 -65l33 -68l68 44v-362h131v446l108 70l-33 69l-75 -49v244h-131z" />
    <glyph glyph-name="uni0143" unicode="&#x143;" horiz-adv-x="788" 
d="M551 909l-103 49l-150 -160l73 -39zM573 700v-431l-497 466v-735h140v431l497 -466v735h-140z" />
    <glyph glyph-name="uni0144" unicode="&#x144;" horiz-adv-x="560" 
d="M437 680l-103 49l-150 -160l73 -39zM361 280v-280h135v294q0 86 -40.5 131t-121.5 45q-49 0 -84 -21.5t-55 -58.5v70h-131v-460h131v280q0 43 24.5 68t65.5 25t58.5 -23.5t17.5 -69.5z" />
    <glyph glyph-name="uni0145" unicode="&#x145;" horiz-adv-x="788" 
d="M573 700v-431l-497 466v-735h140v431l497 -466v735h-140zM374 -48l-88 -259l98 -23l120 250z" />
    <glyph glyph-name="uni0146" unicode="&#x146;" horiz-adv-x="560" 
d="M259 -60l-88 -259l97 -23l121 250zM361 280v-280h135v294q0 86 -40.5 131t-121.5 45q-47 0 -82 -20t-57 -54v64h-131v-460h131v280q0 43 24.5 68t65.5 25t58.5 -23.5t17.5 -69.5z" />
    <glyph glyph-name="Ncaron" unicode="&#x147;" horiz-adv-x="788" 
d="M573 700v-431l-497 466v-735h140v431l497 -466v735h-140zM382 895l-96 89l-90 -62l186 -140l187 140l-90 62z" />
    <glyph glyph-name="uni0148" unicode="&#x148;" horiz-adv-x="560" 
d="M280 644l-97 88l-90 -62l187 -140l186 140l-90 62zM361 280v-280h135v294q0 86 -40.5 131t-121.5 45q-47 0 -82 -20t-57 -54v64h-131v-460h131v280q0 43 24.5 68t65.5 25t58.5 -23.5t17.5 -69.5z" />
    <glyph glyph-name="uni0149" unicode="&#x149;" horiz-adv-x="714" 
d="M117 700l-56 -248h93l102 248h-139zM515 280v-280h135v294q0 86 -40.5 131t-121.5 45q-47 0 -82 -20t-57 -54v64h-131v-460h131v280q0 43 24.5 68t65.5 25t58.5 -23.5t17.5 -69.5z" />
    <glyph glyph-name="uni014C" unicode="&#x14c;" horiz-adv-x="812" 
d="M224 774h364v115h-364v-115zM36 350q0 -80 27.5 -147.5t77 -117t117 -77t148.5 -27.5t148.5 27.5t117 77t77 117t27.5 147.5t-27.5 146.5t-77.5 115.5t-117.5 75.5t-147.5 26.5q-79 0 -146.5 -26.5t-117.5 -75.5t-78 -115.5t-28 -146.5zM189 350q0 67 27.5 119t76.5 81.5
t113 29.5q66 0 114.5 -29.5t75.5 -81.5t27 -119t-27.5 -119t-76 -81.5t-113.5 -29.5q-64 0 -113 29.5t-76.5 81.5t-27.5 119z" />
    <glyph glyph-name="uni014D" unicode="&#x14d;" horiz-adv-x="576" 
d="M106 530h365v115h-365v-115zM167 230q0 59 35 94.5t86 35.5t86.5 -35.5t35.5 -94.5q0 -58 -35.5 -94t-86.5 -36t-86 36t-35 94zM33 230q0 -71 33.5 -125.5t91 -84.5t130.5 -30t131 30t91.5 84.5t33.5 125.5q0 72 -33.5 126t-91.5 84t-131 30t-130.5 -30t-91 -84
t-33.5 -126z" />
    <glyph glyph-name="Obreve" unicode="&#x14e;" horiz-adv-x="812" 
d="M244 919q0 -39 18.5 -72t55 -53t88.5 -20q53 0 89 20t54.5 53t18.5 72h-90q0 -25 -18 -44.5t-54 -19.5t-54 19.5t-18 44.5h-90zM36 350q0 -80 27.5 -147.5t77 -117t117 -77t148.5 -27.5t148.5 27.5t117 77t77 117t27.5 147.5t-27.5 146.5t-77.5 115.5t-117.5 75.5
t-147.5 26.5q-79 0 -146.5 -26.5t-117.5 -75.5t-78 -115.5t-28 -146.5zM189 350q0 67 27.5 119t76.5 81.5t113 29.5q66 0 114.5 -29.5t75.5 -81.5t27 -119t-27.5 -119t-76 -81.5t-113.5 -29.5q-64 0 -113 29.5t-76.5 81.5t-27.5 119z" />
    <glyph glyph-name="uni014F" unicode="&#x14f;" horiz-adv-x="576" 
d="M126 675q0 -39 18.5 -72t55 -53t88.5 -20q53 0 89 20t55 53t19 72h-91q0 -25 -18 -44.5t-54 -19.5t-53.5 19.5t-17.5 44.5h-91zM167 230q0 59 35 94.5t86 35.5t86.5 -35.5t35.5 -94.5q0 -58 -35.5 -94t-86.5 -36t-86 36t-35 94zM33 230q0 -71 33.5 -125.5t91 -84.5
t130.5 -30t131 30t91.5 84.5t33.5 125.5q0 72 -33.5 126t-91.5 84t-131 30t-130.5 -30t-91 -84t-33.5 -126z" />
    <glyph glyph-name="uni0152" unicode="&#x152;" horiz-adv-x="985" 
d="M940 122h-307v189h286v120h-286v147h306v122h-549q-102 0 -182 -44t-126 -122.5t-46 -183.5t46 -183.5t126.5 -122.5t181.5 -44h550v122zM493 572v-444h-81q-108 0 -168 58t-60 164t59.5 164t168.5 58h81z" />
    <glyph glyph-name="uni0153" unicode="&#x153;" horiz-adv-x="900" 
d="M164 230q0 63 36 96.5t86 33.5q46 0 78.5 -33.5t32.5 -96.5t-32.5 -96.5t-78.5 -33.5q-50 0 -86 33.5t-36 96.5zM35 230q0 -74 31 -128t83 -83t114 -29q69 0 117 34.5t70 98.5q25 -61 76 -97t118 -36q74 0 131.5 37.5t88.5 92.5l-114 36q-21 -31 -49.5 -50t-72.5 -19
q-48 0 -78.5 29.5t-37.5 84.5h351q1 6 1.5 16.5t0.5 16.5q0 73 -29 125.5t-76 81.5t-102 29q-73 0 -127.5 -36.5t-80.5 -98.5q-22 64 -70 99.5t-117 35.5q-62 0 -114 -29t-83 -82.5t-31 -128.5zM513 280q6 48 38.5 73t74.5 25q44 0 68.5 -26.5t30.5 -71.5h-212z" />
    <glyph glyph-name="Racute" unicode="&#x154;" horiz-adv-x="621" 
d="M450 924l-103 49l-150 -160l73 -39zM220 254h62l163 -254h171l-190 271q71 24 109.5 78t38.5 128q0 100 -68.5 161.5t-193.5 61.5h-92h-56h-88v-700h144v254zM220 368v209h83q56 0 89 -27.5t33 -77.5q0 -49 -33 -76.5t-89 -27.5h-83z" />
    <glyph glyph-name="uni0155" unicode="&#x155;" horiz-adv-x="391" 
d="M377 681l-103 49l-150 -160l73 -39zM327 324l59 110q-14 18 -36 27.5t-47 9.5q-31 0 -60.5 -18t-50.5 -50v57h-128v-460h128v243q0 50 19 78t56 28q20 0 33.5 -6.5t26.5 -18.5z" />
    <glyph glyph-name="uni0156" unicode="&#x156;" horiz-adv-x="621" 
d="M325 -60l-88 -259l97 -23l121 250zM220 254h62l163 -254h171l-190 271q71 24 109.5 78t38.5 128q0 100 -68.5 161.5t-193.5 61.5h-92h-56h-88v-700h144v254zM220 368v209h83q56 0 89 -27.5t33 -77.5q0 -49 -33 -76.5t-89 -27.5h-83z" />
    <glyph glyph-name="uni0157" unicode="&#x157;" horiz-adv-x="391" 
d="M107 -60l-88 -259l98 -23l120 250zM327 324l59 110q-14 18 -36 27.5t-47 9.5q-31 0 -60.5 -18t-50.5 -50v57h-128v-460h128v243q0 50 19 78t56 28q20 0 33.5 -6.5t26.5 -18.5z" />
    <glyph glyph-name="uni0158" unicode="&#x158;" horiz-adv-x="621" 
d="M296 888l-97 88l-89 -62l186 -140l186 140l-89 62zM220 254h62l163 -254h171l-190 271q71 24 109.5 78t38.5 128q0 100 -68.5 161.5t-193.5 61.5h-92h-56h-88v-700h144v254zM220 368v209h83q56 0 89 -27.5t33 -77.5q0 -49 -33 -76.5t-89 -27.5h-83z" />
    <glyph glyph-name="rcaron" unicode="&#x159;" horiz-adv-x="391" 
d="M225 644l-97 89l-89 -62l186 -140l186 140l-89 62zM327 324l59 110q-14 18 -36 27.5t-47 9.5q-31 0 -60.5 -18t-50.5 -50v57h-128v-460h128v243q0 50 19 78t56 28q20 0 33.5 -6.5t26.5 -18.5z" />
    <glyph glyph-name="uni015A" unicode="&#x15a;" horiz-adv-x="602" 
d="M488 924l-103 49l-150 -160l73 -39zM141 244l-105 -72q22 -58 63 -100.5t95 -66.5t116 -24q118 0 185 55.5t67 157.5q0 62 -25.5 103.5t-66.5 68t-86 42.5q-42 16 -78.5 30.5t-59.5 33.5t-23 46q0 32 25 51.5t66 19.5q46 0 76 -26t52 -67l111 66q-14 36 -45 71t-80.5 58
t-119.5 23q-68 0 -120.5 -23.5t-82.5 -66t-30 -100.5q0 -49 19 -85t48 -60.5t60.5 -40.5t57.5 -26q40 -15 74 -30.5t55 -36.5t21 -55q0 -81 -95 -81q-58 0 -98.5 35t-75.5 100z" />
    <glyph glyph-name="sacute" unicode="&#x15b;" horiz-adv-x="440" 
d="M398 680l-103 49l-150 -160l73 -39zM85 171l-64 -82q34 -46 91.5 -76t127.5 -30q81 0 128 35t47 112q0 38 -18 64t-47 43.5t-62 30.5q-28 11 -55 20.5t-44.5 20.5t-17.5 26q0 19 15 27t40 8q28 0 63.5 -15t59.5 -41l57 81q-30 32 -80 53.5t-108 21.5q-46 0 -85.5 -15
t-63.5 -43.5t-24 -71.5q0 -39 17.5 -65t45.5 -42.5t58 -30.5q27 -12 54 -21.5t45 -21.5t18 -32q0 -21 -14.5 -30t-40.5 -9q-29 0 -66.5 19.5t-76.5 63.5z" />
    <glyph glyph-name="uni015C" unicode="&#x15c;" horiz-adv-x="602" 
d="M308 863l97 -89l90 62l-187 140l-186 -140l90 -62zM141 244l-105 -72q22 -58 63 -100.5t95 -66.5t116 -24q118 0 185 55.5t67 157.5q0 62 -25.5 103.5t-66.5 68t-86 42.5q-42 16 -78.5 30.5t-59.5 33.5t-23 46q0 32 25 51.5t66 19.5q46 0 76 -26t52 -67l111 66
q-14 36 -45 71t-80.5 58t-119.5 23q-68 0 -120.5 -23.5t-82.5 -66t-30 -100.5q0 -49 19 -85t48 -60.5t60.5 -40.5t57.5 -26q40 -15 74 -30.5t55 -36.5t21 -55q0 -81 -95 -81q-58 0 -98.5 35t-75.5 100z" />
    <glyph glyph-name="uni015D" unicode="&#x15d;" horiz-adv-x="440" 
d="M227 619l97 -89l90 62l-187 140l-186 -140l89 -62zM85 171l-64 -82q34 -46 91.5 -76t127.5 -30q81 0 128 35t47 112q0 38 -18 64t-47 43.5t-62 30.5q-28 11 -55 20.5t-44.5 20.5t-17.5 26q0 19 15 27t40 8q28 0 63.5 -15t59.5 -41l57 81q-30 32 -80 53.5t-108 21.5
q-46 0 -85.5 -15t-63.5 -43.5t-24 -71.5q0 -39 17.5 -65t45.5 -42.5t58 -30.5q27 -12 54 -21.5t45 -21.5t18 -32q0 -21 -14.5 -30t-40.5 -9q-29 0 -66.5 19.5t-76.5 63.5z" />
    <glyph glyph-name="uni015E" unicode="&#x15e;" horiz-adv-x="602" 
d="M141 244l-105 -72q29 -74 88 -123.5t135 -63.5l-52 -112q23 11 45.5 14t29.5 3q24 0 40.5 -6.5t16.5 -26.5q0 -37 -53 -37q-16 0 -35.5 6t-36.5 19l-42 -60q31 -22 61 -30.5t67 -8.5q31 0 59 12t46.5 35.5t18.5 57.5q0 31 -13.5 50.5t-33.5 29.5t-39 10h-14t-14 -2l29 43
q101 7 162 62t61 150q0 62 -25.5 103.5t-66.5 68t-86 42.5q-42 16 -78.5 30.5t-59.5 33.5t-23 46q0 32 22 51.5t63 19.5q46 0 79 -26t55 -67l111 66q-16 39 -47 73.5t-79.5 56.5t-118.5 22q-71 0 -123.5 -24.5t-81 -67.5t-28.5 -101q0 -51 19 -87t48 -59.5t60.5 -38
t57.5 -24.5q40 -15 74 -30.5t55 -36.5t21 -55q0 -81 -95 -81q-58 0 -98.5 35t-75.5 100z" />
    <glyph glyph-name="uni015F" unicode="&#x15f;" horiz-adv-x="436" 
d="M85 170l-64 -78q29 -37 70.5 -64t91.5 -38l-48 -103q23 11 45.5 14t29.5 3q24 0 41 -7t17 -27q0 -36 -54 -36q-16 0 -35 6t-36 19l-42 -61q31 -22 61 -30t67 -8q31 0 59 11.5t46.5 35t18.5 57.5q0 31 -14 51t-34 30t-39 10q-14 0 -28 -3l22 33q70 5 110.5 41.5
t40.5 103.5q0 42 -18 68.5t-47 43.5t-62 30q-27 11 -53 19.5t-42.5 19.5t-16.5 27q0 34 54 34q28 0 59.5 -15t59.5 -41l57 78q-30 33 -78.5 54.5t-106.5 21.5q-45 0 -82 -16t-59 -45t-22 -67q0 -43 19 -70.5t49 -44.5t62 -29q39 -15 69.5 -30.5t30.5 -41.5q0 -38 -54 -38
q-28 0 -66 23t-79 59z" />
    <glyph glyph-name="uni0160" unicode="&#x160;" horiz-adv-x="602" 
d="M308 888l-96 88l-90 -62l186 -140l187 140l-90 62zM141 244l-105 -72q22 -58 63 -100.5t95 -66.5t116 -24q118 0 185 55.5t67 157.5q0 62 -25.5 103.5t-66.5 68t-86 42.5q-42 16 -78.5 30.5t-59.5 33.5t-23 46q0 32 25 51.5t66 19.5q46 0 76 -26t52 -67l111 66
q-14 36 -45 71t-80.5 58t-119.5 23q-68 0 -120.5 -23.5t-82.5 -66t-30 -100.5q0 -49 19 -85t48 -60.5t60.5 -40.5t57.5 -26q40 -15 74 -30.5t55 -36.5t21 -55q0 -81 -95 -81q-58 0 -98.5 35t-75.5 100z" />
    <glyph glyph-name="uni0161" unicode="&#x161;" horiz-adv-x="440" 
d="M218 635l-96 89l-90 -62l186 -140l187 140l-90 62zM85 171l-64 -82q34 -46 91.5 -76t127.5 -30q81 0 128 35t47 112q0 38 -18 64t-47 43.5t-62 30.5q-28 11 -55 20.5t-44.5 20.5t-17.5 26q0 19 15 27t40 8q28 0 63.5 -15t59.5 -41l57 81q-30 32 -80 53.5t-108 21.5
q-46 0 -85.5 -15t-63.5 -43.5t-24 -71.5q0 -39 17.5 -65t45.5 -42.5t58 -30.5q27 -12 54 -21.5t45 -21.5t18 -32q0 -21 -14.5 -30t-40.5 -9q-29 0 -66.5 19.5t-76.5 63.5z" />
    <glyph glyph-name="uni0164" unicode="&#x164;" horiz-adv-x="532" 
d="M266 888l-96 88l-90 -62l186 -140l186 140l-88 62zM6 570h188v-570h144v570h189v130h-521v-130z" />
    <glyph glyph-name="uni0165" unicode="&#x165;" horiz-adv-x="454" 
d="M350 792l-88 -259l98 -23l121 250zM84 620v-160h-79v-110h79v-350h126v350h80v110h-80v160h-126z" />
    <glyph glyph-name="uni016E" unicode="&#x16e;" horiz-adv-x="678" 
d="M292 885q0 23 13.5 36t32.5 13t33.5 -13t14.5 -36t-14.5 -36t-33.5 -13t-32.5 13t-13.5 36zM220 885q0 -49 35 -80t83 -31t84 31t36 80q0 50 -36 80.5t-84 30.5t-83 -30.5t-35 -80.5zM70 700v-470q0 -82 35 -139t96 -86t138 -29t138 29t96 86t35 139v470h-144v-462
q0 -58 -31.5 -94.5t-93.5 -36.5q-61 0 -93 36.5t-32 94.5v462h-144z" />
    <glyph glyph-name="uni016F" unicode="&#x16f;" horiz-adv-x="560" 
d="M232 641q0 23 14.5 36t33.5 13t33.5 -13t14.5 -36t-14.5 -36t-33.5 -13t-33.5 13t-14.5 36zM162 641q0 -49 35 -80t83 -31t83 31t35 80q0 50 -35 80.5t-83 30.5t-83 -30.5t-35 -80.5zM199 180v280h-135v-294q0 -85 40.5 -130.5t121.5 -45.5q50 0 85 22t55 59v-71h130v460
h-130v-280q0 -43 -25 -68.5t-66 -25.5q-40 0 -58 24.5t-18 69.5z" />
    <glyph glyph-name="uni0178" unicode="&#x178;" horiz-adv-x="630" 
d="M465 700l-150 -281l-149 281h-165l241 -411v-289h147v290l241 410h-165zM366 856q0 -32 23 -53t55 -21t55.5 21t23.5 53t-23.5 53t-55.5 21t-55 -21t-23 -53zM109 856q0 -32 23 -53t55 -21t55 21t23 53t-23 53t-55 21t-55 -21t-23 -53z" />
    <glyph glyph-name="uni0179" unicode="&#x179;" horiz-adv-x="597" 
d="M485 924l-104 49l-150 -160l74 -39zM50 569h299l-338 -569h540v126h-310l341 574h-532v-131z" />
    <glyph glyph-name="uni017A" unicode="&#x17a;" horiz-adv-x="504" 
d="M440 692l-103 48l-150 -160l73 -38zM269 341l-254 -341h445v119h-217l246 341h-435v-119h215z" />
    <glyph glyph-name="Zdotaccent" unicode="&#x17b;" horiz-adv-x="597" 
d="M238 848q0 -32 23 -53t55 -21t55 21t23 53t-23 53t-55 21t-55 -21t-23 -53zM50 569h299l-338 -569h540v126h-310l341 574h-532v-131z" />
    <glyph glyph-name="uni017C" unicode="&#x17c;" horiz-adv-x="504" 
d="M193 621q0 -32 23 -53t55 -21t55.5 21t23.5 53t-23.5 53t-55.5 21t-55 -21t-23 -53zM269 341l-254 -341h445v119h-217l246 341h-435v-119h215z" />
    <glyph glyph-name="uni017D" unicode="&#x17d;" horiz-adv-x="597" 
d="M316 888l-97 88l-89 -62l186 -140l186 140l-89 62zM50 569h299l-338 -569h540v126h-310l341 574h-532v-131z" />
    <glyph glyph-name="uni017E" unicode="&#x17e;" horiz-adv-x="499" 
d="M270 341l-255 -341h445v119h-218l247 341h-435v-119h216zM271 644l-96 88l-90 -62l186 -140l187 140l-90 62z" />
    <glyph glyph-name="uni0212" unicode="&#x212;" horiz-adv-x="621" 
d="M149 774h91q0 25 18 44.5t54 19.5t53.5 -19.5t17.5 -44.5h91q0 39 -18.5 72t-54.5 53t-89 20q-52 0 -88.5 -20t-55.5 -53t-19 -72zM220 254h62l163 -254h171l-190 271q71 24 109.5 78t38.5 128q0 100 -68.5 161.5t-193.5 61.5h-92h-56h-88v-700h144v254zM220 368v209h83
q56 0 89 -27.5t33 -77.5q0 -49 -33 -76.5t-89 -27.5h-83z" />
    <glyph glyph-name="uni0213" unicode="&#x213;" horiz-adv-x="391" 
d="M63 531h91q0 25 17.5 44.5t53.5 19.5t54 -19.5t18 -44.5h91q0 39 -19 72t-55 52.5t-89 19.5q-52 0 -88.5 -19.5t-55 -52.5t-18.5 -72zM327 324l59 110q-14 18 -36 27.5t-47 9.5q-31 0 -60.5 -18t-50.5 -50v57h-128v-460h128v243q0 50 19 78t56 28q20 0 33.5 -6.5
t26.5 -18.5z" />
    <glyph glyph-name="uni0218" unicode="&#x218;" horiz-adv-x="602" 
d="M271 -70l-88 -259l98 -23l121 250zM141 244l-105 -72q22 -58 63 -100.5t95 -66.5t116 -24q118 0 185 55.5t67 157.5q0 62 -25.5 103.5t-66.5 68t-86 42.5q-42 16 -78.5 30.5t-59.5 33.5t-23 46q0 32 25 51.5t66 19.5q46 0 76 -26t52 -67l111 66q-14 36 -45 71t-80.5 58
t-119.5 23q-68 0 -120.5 -23.5t-82.5 -66t-30 -100.5q0 -49 19 -85t48 -60.5t60.5 -40.5t57.5 -26q40 -15 74 -30.5t55 -36.5t21 -55q0 -81 -95 -81q-58 0 -98.5 35t-75.5 100z" />
    <glyph glyph-name="uni0219" unicode="&#x219;" horiz-adv-x="440" 
d="M202 -68l-88 -259l97 -23l121 250zM85 171l-64 -82q34 -46 91.5 -76t127.5 -30q81 0 128 35t47 112q0 38 -18 64t-47 43.5t-62 30.5q-28 11 -55 20.5t-44.5 20.5t-17.5 26q0 19 15 27t40 8q28 0 63.5 -15t59.5 -41l57 81q-30 32 -80 53.5t-108 21.5q-46 0 -85.5 -15
t-63.5 -43.5t-24 -71.5q0 -39 17.5 -65t45.5 -42.5t58 -30.5q27 -12 54 -21.5t45 -21.5t18 -32q0 -21 -14.5 -30t-40.5 -9q-29 0 -66.5 19.5t-76.5 63.5z" />
    <glyph glyph-name="uni0237" unicode="&#x237;" horiz-adv-x="265" 
d="M-28 -88l-56 -98q14 -15 41.5 -31t73.5 -16q80 0 121 42.5t41 121.5v529h-126v-499q0 -40 -12.5 -57.5t-35.5 -17.5q-13 0 -24.5 6t-22.5 20z" />
    <glyph glyph-name="uni02C6" unicode="&#x2c6;" horiz-adv-x="480" 
d="M240 634l97 -88l89 62l-186 140l-186 -140l89 -62z" />
    <glyph glyph-name="uni02C7" unicode="&#x2c7;" horiz-adv-x="480" 
d="M240 670l-97 88l-89 -62l186 -140l186 140l-89 62z" />
    <glyph glyph-name="uni02D8" unicode="&#x2d8;" horiz-adv-x="546" 
d="M111 850q0 -39 18.5 -71.5t55 -52.5t88.5 -20q53 0 89 20t54.5 52.5t18.5 71.5h-90q0 -25 -18 -44.5t-54 -19.5t-54 19.5t-18 44.5h-90z" />
    <glyph glyph-name="uni02D9" unicode="&#x2d9;" horiz-adv-x="300" 
d="M72 806q0 -32 23 -53t55 -21t55 21t23 53t-23 53t-55 21t-55 -21t-23 -53z" />
    <glyph glyph-name="uni02DA" unicode="&#x2da;" horiz-adv-x="313" 
d="M109 774q0 23 14 36t33 13t33.5 -13t14.5 -36t-14.5 -36t-33.5 -13t-33 13t-14 36zM38 774q0 -49 35 -80t83 -31t83.5 31t35.5 80q0 50 -35.5 80.5t-83.5 30.5t-83 -30.5t-35 -80.5z" />
    <glyph glyph-name="uni02DB" unicode="&#x2db;" horiz-adv-x="260" 
d="M194 -117q-10 -10 -21.5 -15t-28.5 -5q-39 0 -39 41q0 25 22.5 51t61.5 45l-41 25q-35 -18 -66 -39.5t-50.5 -47.5t-19.5 -58q0 -47 32.5 -73.5t85.5 -26.5q39 0 62.5 12.5t34.5 27.5z" />
    <glyph glyph-name="uni02DC" unicode="&#x2dc;" horiz-adv-x="530" 
d="M82 634l67 -55q0 8 3.5 20t14 21.5t29.5 9.5q24 0 44.5 -13t42 -25.5t48.5 -12.5q30 0 55 13t43.5 32t26.5 37l-63 65q-15 -24 -30.5 -38t-32.5 -14q-21 0 -35.5 7.5t-27.5 18t-29 18t-41 7.5q-43 0 -75 -27t-40 -64z" />
    <glyph glyph-name="uni03C0" unicode="&#x3c0;" horiz-adv-x="584" 
d="M30 460v-110h60v-350h124v350h126v-229q0 -59 20.5 -86.5t60 -35.5t96.5 -8v106q-15 0 -27 4t-19 18.5t-7 47.5v183h80v110h-514z" />
    <glyph glyph-name="uni1E9E" unicode="&#x1e9e;" horiz-adv-x="839" 
d="M528 -14q74 0 131 25t89.5 70t32.5 104q0 74 -44 117t-116 62q65 21 102.5 63t37.5 98q0 57 -37.5 98.5t-106.5 64t-163 22.5q-109 0 -193.5 -39.5t-132.5 -116t-48 -186.5v-368h144v351q0 89 33 142.5t87 78t116 24.5q75 0 113.5 -24t38.5 -64q0 -43 -33 -70t-94 -27
v-31v-35v-33q68 0 110 -26.5t42 -81.5q0 -47 -28 -73t-81 -26q-52 0 -84.5 30t-32.5 76h-130q0 -54 26.5 -106t81 -85.5t139.5 -33.5z" />
    <glyph glyph-name="uni2010" unicode="&#x2010;" horiz-adv-x="218" 
d="M5 180h209v115h-209v-115z" />
    <glyph glyph-name="uni2012" unicode="&#x2012;" horiz-adv-x="616" 
d="M70 180h470v115h-470v-115z" />
    <glyph glyph-name="uni2013" unicode="&#x2013;" horiz-adv-x="770" 
d="M70 180h626v115h-626v-115z" />
    <glyph glyph-name="uni2014" unicode="&#x2014;" horiz-adv-x="925" 
d="M70 180h783v115h-783v-115z" />
    <glyph glyph-name="uni2018" unicode="&#x2018;" horiz-adv-x="314" 
d="M209 452l56 248h-93l-102 -248h139z" />
    <glyph glyph-name="uni2019" unicode="&#x2019;" horiz-adv-x="314" 
d="M106 700l-56 -248h92l103 248h-139z" />
    <glyph glyph-name="uni201A" unicode="&#x201a;" horiz-adv-x="314" 
d="M116 80l-56 -248h92l103 248h-139z" />
    <glyph glyph-name="uni201C" unicode="&#x201c;" horiz-adv-x="536" 
d="M431 452l56 248h-93l-102 -248h139zM209 452l56 248h-93l-102 -248h139z" />
    <glyph glyph-name="uni201D" unicode="&#x201d;" horiz-adv-x="536" 
d="M328 700l-56 -248h92l103 248h-139zM106 700l-56 -248h92l103 248h-139z" />
    <glyph glyph-name="dagger" unicode="&#x2020;" horiz-adv-x="614" 
d="M245 700v-160h-155v-110h155v-580h124v580h155v110h-155v160h-124z" />
    <glyph glyph-name="uni2021" unicode="&#x2021;" horiz-adv-x="614" 
d="M245 700v-160h-155v-110h155v-284h-155v-110h155v-186h124v186h155v110h-155v284h155v110h-155v160h-124z" />
    <glyph glyph-name="uni2026" unicode="&#x2026;" horiz-adv-x="917" 
d="M675 60q0 -34 23.5 -58t59.5 -24t59.5 24t23.5 58t-23.5 57.5t-59.5 23.5t-59.5 -23.5t-23.5 -57.5zM375 60q0 -34 23.5 -58t59.5 -24t59.5 24t23.5 58t-23.5 57.5t-59.5 23.5t-59.5 -23.5t-23.5 -57.5zM75 60q0 -34 23.5 -58t59.5 -24t59.5 24t23.5 58t-23.5 57.5
t-59.5 23.5t-59.5 -23.5t-23.5 -57.5z" />
    <glyph glyph-name="uni2030" unicode="&#x2030;" horiz-adv-x="1302" 
d="M625 700l-512 -700h132l512 700h-132zM592 161q0 30 20 52.5t52 22.5t51.5 -22.5t19.5 -52.5t-19.5 -52t-51.5 -22t-52 22t-20 52zM484 161q0 -49 23.5 -89t64 -64t92.5 -24t92.5 24t64 64t23.5 89t-23.5 89.5t-64 64.5t-92.5 24t-92.5 -24t-64 -64.5t-23.5 -89.5z
M135 539q0 30 19.5 52.5t51.5 22.5t51.5 -22.5t19.5 -52.5t-19.5 -52.5t-51.5 -22.5t-51.5 22.5t-19.5 52.5zM26 539q0 -49 23.5 -89.5t64 -64.5t92.5 -24t92.5 24t64 64.5t23.5 89.5t-23.5 89.5t-64 64.5t-92.5 24t-92.5 -24t-64 -64.5t-23.5 -89.5zM1025 161
q0 30 19.5 52.5t51.5 22.5t52 -22.5t20 -52.5t-20 -52t-52 -22t-51.5 22t-19.5 52zM916 161q0 -49 23.5 -89t64 -64t92.5 -24t92.5 24t64 64t23.5 89t-23.5 89.5t-64 64.5t-92.5 24t-92.5 -24t-64 -64.5t-23.5 -89.5z" />
    <glyph glyph-name="uni2031" unicode="&#x2031;" horiz-adv-x="1735" 
d="M625 700l-512 -700h132l512 700h-132zM592 161q0 30 20 52.5t52 22.5t51.5 -22.5t19.5 -52.5t-19.5 -52t-51.5 -22t-52 22t-20 52zM484 161q0 -49 23.5 -89t64 -64t92.5 -24t92.5 24t64 64t23.5 89t-23.5 89.5t-64 64.5t-92.5 24t-92.5 -24t-64 -64.5t-23.5 -89.5z
M135 539q0 30 19.5 52.5t51.5 22.5t51.5 -22.5t19.5 -52.5t-19.5 -52.5t-51.5 -22.5t-51.5 22.5t-19.5 52.5zM26 539q0 -49 23.5 -89.5t64 -64.5t92.5 -24t92.5 24t64 64.5t23.5 89.5t-23.5 89.5t-64 64.5t-92.5 24t-92.5 -24t-64 -64.5t-23.5 -89.5zM1025 161
q0 30 19.5 52.5t51.5 22.5t52 -22.5t20 -52.5t-20 -52t-52 -22t-51.5 22t-19.5 52zM916 161q0 -49 23.5 -89t64 -64t92.5 -24t92.5 24t64 64t23.5 89t-23.5 89.5t-64 64.5t-92.5 24t-92.5 -24t-64 -64.5t-23.5 -89.5zM1458 161q0 30 19.5 52.5t51.5 22.5t51.5 -22.5
t19.5 -52.5t-19.5 -52t-51.5 -22t-51.5 22t-19.5 52zM1349 161q0 -49 23.5 -89t64 -64t92.5 -24t92.5 24t64 64t23.5 89t-23.5 89.5t-64 64.5t-92.5 24t-92.5 -24t-64 -64.5t-23.5 -89.5z" />
    <glyph glyph-name="uni2039" unicode="&#x2039;" horiz-adv-x="350" 
d="M143 259l150 186l-81 58l-181 -248l181 -248l81 58z" />
    <glyph glyph-name="uni203A" unicode="&#x203a;" horiz-adv-x="350" 
d="M207 251l-150 -186l81 -58l181 248l-181 248l-81 -58z" />
    <glyph glyph-name="uni203D" unicode="&#x203d;" horiz-adv-x="606" 
d="M197 55q0 -32 24 -54.5t60 -22.5t59.5 22.5t23.5 54.5t-23.5 54.5t-59.5 22.5t-60 -22.5t-24 -54.5zM211 506l25 -314h81l8 91q40 5 80 22t73 44.5t53 65.5t20 85q0 66 -34.5 114.5t-90.5 75t-121 26.5q-92 0 -155.5 -36.5t-98.5 -89.5l92 -71q23 44 62 64.5t86 20.5
q62 0 100 -29.5t38 -87.5q0 -41 -27 -75.5t-71 -51.5l12 146h-132z" />
    <glyph glyph-name="uni2044" unicode="&#x2044;" horiz-adv-x="722" 
d="M580 700l-520 -700h105l520 700h-105z" />
    <glyph glyph-name="uni2070" unicode="&#x2070;" horiz-adv-x="385" 
d="M23 490q0 -100 47.5 -158.5t122.5 -58.5q77 0 123 58.5t46 158.5t-46 158.5t-123 58.5q-75 0 -122.5 -58.5t-47.5 -158.5zM107 490q0 64 23.5 103t62.5 39t62 -39t23 -103t-23 -103t-62 -39t-62.5 39t-23.5 103z" />
    <glyph glyph-name="uni2074" unicode="&#x2074;" horiz-adv-x="414" 
d="M320 357h66v74h-66v269h-59l-241 -343h211v-77h89v77zM239 422h-100l100 141v-141z" />
    <glyph glyph-name="uni2075" unicode="&#x2075;" horiz-adv-x="378" 
d="M351 413q0 65 -38 102t-89 37q-19 0 -36.5 -3.5t-34.5 -11.5l26 86h165v75h-229l-58 -237q32 18 60.5 24t54.5 6q34 0 59.5 -17.5t25.5 -52.5q0 -34 -22.5 -52.5t-62.5 -18.5q-26 0 -54.5 15t-51.5 38l-40 -68q27 -26 65.5 -45t96.5 -19q41 0 78 15t61 46.5t24 80.5z" />
    <glyph glyph-name="uni2076" unicode="&#x2076;" horiz-adv-x="372" 
d="M196 697l-127 -166q-18 -22 -30.5 -49t-12.5 -59q0 -49 22 -83.5t59 -52.5t82 -18t82 18t59 52.5t22 83.5q0 41 -18.5 71.5t-48 47.5t-61.5 17q-25 0 -42 -7l124 145h-110zM111 423q0 35 22.5 57t55.5 22t55 -22t22 -57t-22 -57t-55 -22t-55.5 22t-22.5 57z" />
    <glyph glyph-name="uni2077" unicode="&#x2077;" horiz-adv-x="371" 
d="M25 619h201l-167 -339h92l202 420h-328v-81z" />
    <glyph glyph-name="uni2078" unicode="&#x2078;" horiz-adv-x="350" 
d="M111 407q0 26 19 44t44 18q26 0 45 -18t19 -44q0 -31 -19 -47.5t-45 -16.5q-25 0 -44 16.5t-19 47.5zM122 590q0 24 14.5 39t37.5 15t38 -15t15 -39t-15.5 -38.5t-37.5 -14.5t-37 14.5t-15 38.5zM40 599q0 -34 17.5 -58.5t45.5 -37.5q-32 -13 -55 -40t-23 -69
q0 -36 20.5 -64t54.5 -43.5t74 -15.5t74 15.5t55 43.5t21 64q0 42 -22.5 69t-55.5 40q28 13 45.5 37.5t17.5 58.5q0 50 -39.5 80t-95.5 30q-55 0 -94.5 -30t-39.5 -80z" />
    <glyph glyph-name="uni2079" unicode="&#x2079;" horiz-adv-x="370" 
d="M185 283l127 166q18 23 30 50t12 58q0 49 -21.5 83.5t-58.5 52.5t-82 18t-82 -18t-59 -52.5t-22 -83.5q0 -41 18.5 -71.5t48 -47.5t61.5 -17q25 0 42 7l-124 -145h110zM269 557q0 -35 -22 -57t-55 -22t-55.5 22t-22.5 57t22.5 57t55.5 22t55 -22t22 -57z" />
    <glyph glyph-name="uni2080" unicode="&#x2080;" horiz-adv-x="385" 
d="M23 210q0 -100 47.5 -158.5t122.5 -58.5q77 0 123 58.5t46 158.5t-46 158.5t-123 58.5q-75 0 -122.5 -58.5t-47.5 -158.5zM107 210q0 64 23.5 103t62.5 39t62 -39t23 -103t-23 -103t-62 -39t-62.5 39t-23.5 103z" />
    <glyph glyph-name="uni2081" unicode="&#x2081;" horiz-adv-x="347" 
d="M90 311l101 26v-336h84v427l-185 -39v-78z" />
    <glyph glyph-name="uni2082" unicode="&#x2082;" horiz-adv-x="391" 
d="M27 2h338v80h-174l108 101q26 24 42.5 52.5t16.5 61.5q0 32 -16.5 62.5t-49.5 50.5t-83 20q-51 0 -87 -21.5t-54.5 -57.5t-18.5 -81h85q0 38 20.5 61.5t52.5 23.5t47 -18.5t15 -41.5q0 -25 -13.5 -46.5t-37.5 -47.5z" />
    <glyph glyph-name="uni2083" unicode="&#x2083;" horiz-adv-x="354" 
d="M177 -9q71 0 112.5 34.5t41.5 88.5q0 41 -22.5 67t-61.5 39q33 14 52.5 37t19.5 55q0 47 -36 81t-102 34q-63 0 -101.5 -35t-38.5 -89h80q0 24 17 39t42 15q26 0 39.5 -13.5t13.5 -35.5q0 -25 -21.5 -43.5t-58.5 -18.5v-13v-29v-17q44 0 68 -17.5t24 -47.5
q0 -29 -18.5 -44t-47.5 -15t-49.5 16.5t-20.5 47.5h-86q0 -36 18.5 -67t53 -50t82.5 -19z" />
    <glyph glyph-name="uni2084" unicode="&#x2084;" horiz-adv-x="418" 
d="M319 77h66v74h-66v269h-59l-241 -343h211v-77h89v77zM238 142h-100l100 141v-141z" />
    <glyph glyph-name="uni2085" unicode="&#x2085;" horiz-adv-x="384" 
d="M353 133q0 65 -38 102t-89 37q-19 0 -36.5 -3.5t-34.5 -11.5l26 86h166v75h-230l-57 -237q32 18 60 24t54 6q34 0 59.5 -17.5t25.5 -52.5q0 -34 -22.5 -52.5t-62.5 -18.5q-26 0 -54.5 15t-51.5 38l-40 -68q27 -26 65.5 -45t96.5 -19q41 0 78 15t61 46.5t24 80.5z" />
    <glyph glyph-name="uni2086" unicode="&#x2086;" horiz-adv-x="380" 
d="M198 417l-127 -166q-18 -22 -30.5 -49t-12.5 -59q0 -49 22 -83.5t59 -52.5t82 -18t82 18t59 52.5t22 83.5q0 41 -18.5 71.5t-48 47.5t-61.5 17q-25 0 -42 -7l124 145h-110zM113 143q0 35 22.5 57t55.5 22t55 -22t22 -57t-22 -57t-55 -22t-55.5 22t-22.5 57z" />
    <glyph glyph-name="uni2087" unicode="&#x2087;" horiz-adv-x="375" 
d="M28 339h201l-168 -339h93l202 420h-328v-81z" />
    <glyph glyph-name="uni2088" unicode="&#x2088;" horiz-adv-x="354" 
d="M114 127q0 26 19 44t44 18q26 0 45 -18t19 -44q0 -31 -19 -47.5t-45 -16.5q-25 0 -44 16.5t-19 47.5zM125 310q0 24 14.5 39t37.5 15t38 -15t15 -39t-15.5 -38.5t-37.5 -14.5t-37 14.5t-15 38.5zM43 319q0 -34 17.5 -58.5t45.5 -37.5q-32 -13 -55 -40t-23 -69
q0 -36 20.5 -64t54.5 -43.5t74 -15.5t74 15.5t55 43.5t21 64q0 42 -22.5 69t-55.5 40q28 13 45.5 37.5t17.5 58.5q0 50 -39.5 80t-95.5 30q-55 0 -94.5 -30t-39.5 -80z" />
    <glyph glyph-name="uni2089" unicode="&#x2089;" horiz-adv-x="382" 
d="M181 3l127 166q18 23 30.5 50t12.5 58q0 49 -22 83.5t-59 52.5t-82 18t-82 -18t-59 -52.5t-22 -83.5q0 -41 18.5 -71.5t48 -47.5t61.5 -17q25 0 42 7l-124 -145h110zM265 277q0 -35 -22 -57t-55 -22t-55.5 22t-22.5 57t22.5 57t55.5 22t55 -22t22 -57z" />
    <glyph glyph-name="uni20AC" unicode="&#x20ac;" horiz-adv-x="632" 
d="M33 261h67q15 -81 56 -144t103.5 -98.5t141.5 -35.5q41 0 78.5 11t71.5 30v143q-64 -62 -150 -62q-63 0 -108 41t-62 115h284v74h-294v7.5v7.5q0 10 0.5 19.5t1.5 19.5h314v73h-300q20 64 63 98.5t101 34.5q86 0 150 -62v143q-34 20 -71.5 30.5t-78.5 10.5
q-76 0 -136 -32.5t-101 -89.5t-59 -133h-63v-73h51q-1 -10 -1 -19.5v-19.5v-7.5v-7.5h-59v-74z" />
    <glyph glyph-name="uni2122" unicode="&#x2122;" horiz-adv-x="722" 
d="M30 634h95v-284h72v284h95v66h-262v-66zM394 541l101 -159l102 158l22 -190h75l-52 367l-147 -225l-146 225l-52 -367h75z" />
    <glyph glyph-name="uni2150" unicode="&#x2150;" horiz-adv-x="912" 
d="M560 339h201l-168 -339h93l202 420h-328v-81zM26 584l101 26v-336h84v427l-185 -39v-78zM594 700l-520 -700h105l520 700h-105z" />
    <glyph glyph-name="uni2151" unicode="&#x2151;" horiz-adv-x="854" 
d="M664 3l126 166q18 23 30.5 50t12.5 58q0 49 -21.5 83.5t-58.5 52.5t-82 18t-82 -18t-59 -52.5t-22 -83.5q0 -41 18.5 -71.5t48 -47.5t61.5 -17q25 0 42 7l-124 -145h110zM748 277q0 -35 -22 -57t-55 -22t-55.5 22t-22.5 57t22.5 57t55.5 22t55 -22t22 -57zM26 584l101 26
v-336h84v427l-185 -39v-78zM590 700l-520 -700h105l520 700h-105z" />
    <glyph glyph-name="uni2152" unicode="&#x2152;" horiz-adv-x="1172" 
d="M802 210q0 -100 47 -158.5t122 -58.5q77 0 123 58.5t46 158.5t-46 158.5t-123 58.5q-75 0 -122 -58.5t-47 -158.5zM886 210q0 64 23 103t62 39t62 -39t23 -103t-23 -103t-62 -39t-62 39t-23 103zM532 311l101 26v-336h84v427l-185 -39v-78zM26 584l101 26v-336h84v427
l-185 -39v-78zM590 700l-520 -700h105l520 700h-105z" />
    <glyph glyph-name="uni2153" unicode="&#x2153;" horiz-adv-x="838" 
d="M659 -9q71 0 112.5 34.5t41.5 88.5q0 41 -22.5 67t-61.5 39q33 14 52.5 37t19.5 55q0 47 -36 81t-102 34q-63 0 -101.5 -35t-38.5 -89h80q0 24 17 39t42 15q26 0 39.5 -13.5t13.5 -35.5q0 -25 -21.5 -43.5t-58.5 -18.5v-13v-29v-17q44 0 68 -17.5t24 -47.5
q0 -29 -18.5 -44t-47.5 -15t-49.5 16.5t-20.5 47.5h-86q0 -36 18.5 -67t53 -50t82.5 -19zM26 584l101 26v-336h84v427l-185 -39v-78zM590 700l-520 -700h104l520 700h-104z" />
    <glyph glyph-name="uni2154" unicode="&#x2154;" horiz-adv-x="970" 
d="M790 -9q71 0 113 34.5t42 88.5q0 41 -22.5 67t-61.5 39q33 14 52.5 37t19.5 55q0 47 -36.5 81t-102.5 34q-63 0 -101.5 -35t-38.5 -89h81q0 24 17 39t42 15q26 0 39 -13.5t13 -35.5q0 -25 -21 -43.5t-58 -18.5v-13v-29v-17q44 0 67.5 -17.5t23.5 -47.5q0 -29 -18 -44
t-47 -15t-49.5 16.5t-20.5 47.5h-87q0 -36 18.5 -67t53 -50t82.5 -19zM30 282h338v80h-174l107 101q26 24 43 52.5t17 61.5q0 32 -16.5 62.5t-49.5 50.5t-83 20q-51 0 -87 -21.5t-55 -57.5t-19 -81h86q0 38 20.5 61.5t52.5 23.5t47 -18.5t15 -41.5q0 -25 -13.5 -46.5
t-37.5 -47.5zM730 700l-520 -700h105l520 700h-105z" />
    <glyph glyph-name="uni2155" unicode="&#x2155;" horiz-adv-x="827" 
d="M802 133q0 65 -37.5 102t-88.5 37q-19 0 -36.5 -3.5t-34.5 -11.5l26 86h165v75h-230l-57 -237q32 18 60.5 24t54.5 6q34 0 59.5 -17.5t25.5 -52.5q0 -34 -22.5 -52.5t-62.5 -18.5q-26 0 -54.5 15t-51.5 38l-41 -68q27 -26 66 -45t97 -19q41 0 78 15t60.5 46.5t23.5 80.5z
M26 584l101 26v-336h84v427l-185 -39v-78zM590 700l-520 -700h105l520 700h-105z" />
    <glyph glyph-name="uni2156" unicode="&#x2156;" horiz-adv-x="965" 
d="M934 133q0 65 -38 102t-89 37q-19 0 -36.5 -3.5t-34.5 -11.5l26 86h166v75h-230l-57 -237q32 18 60 24t54 6q34 0 59.5 -17.5t25.5 -52.5q0 -34 -22.5 -52.5t-62.5 -18.5q-26 0 -54.5 15t-51.5 38l-40 -68q27 -26 65.5 -45t96.5 -19q41 0 78 15t61 46.5t24 80.5zM30 282
h338v80h-174l107 101q26 24 43 52.5t17 61.5q0 32 -16.5 62.5t-49.5 50.5t-83 20q-51 0 -87 -21.5t-55 -57.5t-19 -81h86q0 38 20.5 61.5t52.5 23.5t47 -18.5t15 -41.5q0 -25 -13.5 -46.5t-37.5 -47.5zM730 700l-520 -700h105l520 700h-105z" />
    <glyph glyph-name="uni2157" unicode="&#x2157;" horiz-adv-x="901" 
d="M867 133q0 65 -37.5 102t-88.5 37q-19 0 -36.5 -3.5t-34.5 -11.5l26 86h165v75h-230l-57 -237q32 18 60.5 24t54.5 6q34 0 59.5 -17.5t25.5 -52.5q0 -34 -22.5 -52.5t-62.5 -18.5q-26 0 -54.5 15t-51.5 38l-41 -68q27 -26 66 -45t97 -19q41 0 78 15t60.5 46.5t23.5 80.5z
M179 271q71 0 112.5 34.5t41.5 88.5q0 41 -22.5 67t-61.5 39q33 14 52.5 37t19.5 55q0 47 -36 81t-102 34q-63 0 -101.5 -35t-38.5 -89h80q0 24 17 39t42 15q26 0 39.5 -13.5t13.5 -35.5q0 -25 -21.5 -43.5t-58.5 -18.5v-13v-29v-17q44 0 68 -17.5t24 -47.5q0 -29 -18.5 -44
t-47.5 -15t-49.5 16.5t-20.5 47.5h-86q0 -36 18.5 -67t53 -50t82.5 -19zM668 700l-520 -700h105l520 700h-105z" />
    <glyph glyph-name="uni2158" unicode="&#x2158;" horiz-adv-x="971" 
d="M942 133q0 65 -38 102t-89 37q-39 0 -71 -16l26 86h166v76h-230l-57 -238q32 18 60 24t54 6q34 0 60 -17t26 -52q0 -34 -23 -52.5t-63 -18.5q-26 0 -54.5 15t-51.5 38l-40 -69q27 -26 65.5 -45t96.5 -19q41 0 78 15.5t61 47t24 80.5zM721 700l-520 -700h104l520 700h-104
zM324 357h66v74h-66v269h-59l-241 -343h211v-77h89v77zM243 422h-100l100 141v-141z" />
    <glyph glyph-name="uni2159" unicode="&#x2159;" horiz-adv-x="830" 
d="M648 417l-127 -166q-18 -22 -30 -49t-12 -59q0 -49 22 -83.5t58.5 -52.5t81.5 -18t82 18t59 52.5t22 83.5q0 41 -18.5 71.5t-48 47.5t-61.5 17q-25 0 -42 -7l124 145h-110zM564 143q0 35 22 57t55 22t55.5 -22t22.5 -57t-22.5 -57t-55.5 -22t-55 22t-22 57zM26 584
l101 26v-336h84v427l-185 -39v-78zM603 700l-520 -700h105l520 700h-105z" />
    <glyph glyph-name="uni215A" unicode="&#x215a;" horiz-adv-x="908" 
d="M726 417l-127 -166q-18 -22 -30 -49t-12 -59q0 -49 22 -83.5t58.5 -52.5t81.5 -18t82 18t59 52.5t22 83.5q0 41 -18.5 71.5t-48 47.5t-61.5 17q-25 0 -42 -7l124 145h-110zM642 143q0 35 22 57t55 22t55.5 -22t22.5 -57t-22.5 -57t-55.5 -22t-55 22t-22 57zM355 413
q0 65 -38 102t-89 37q-19 0 -36 -3.5t-34 -11.5l25 86h166v75h-230l-57 -237q32 18 60 24t54 6q34 0 60 -17.5t26 -52.5q0 -34 -23 -52.5t-63 -18.5q-26 0 -54.5 15t-51.5 38l-40 -68q27 -26 65.5 -45t96.5 -19q41 0 78 15t61 46.5t24 80.5zM694 700l-520 -700h105l520 700
h-105z" />
    <glyph glyph-name="uni215B" unicode="&#x215b;" horiz-adv-x="852" 
d="M609 127q0 26 19 44t44 18q26 0 45 -18t19 -44q0 -31 -19 -47.5t-45 -16.5q-25 0 -44 16.5t-19 47.5zM620 310q0 24 14.5 39t37.5 15t38 -15t15 -39t-15.5 -38.5t-37.5 -14.5t-37 14.5t-15 38.5zM538 319q0 -34 17.5 -58.5t45.5 -37.5q-32 -13 -55 -40t-23 -69
q0 -36 20.5 -64t54.5 -43.5t74 -15.5t74 15.5t55 43.5t21 64q0 42 -22.5 69t-55.5 40q28 13 45.5 37.5t17.5 58.5q0 50 -39.5 80t-95.5 30q-55 0 -94.5 -30t-39.5 -80zM26 584l101 26v-336h84v427l-185 -39v-78zM603 700l-520 -700h105l520 700h-105z" />
    <glyph glyph-name="uni215C" unicode="&#x215c;" horiz-adv-x="921" 
d="M678 127q0 26 19.5 44t44.5 18q26 0 44.5 -18t18.5 -44q0 -31 -18.5 -47.5t-44.5 -16.5q-25 0 -44.5 16.5t-19.5 47.5zM689 310q0 24 15 39t38 15t37.5 -15t14.5 -39t-15 -38.5t-37 -14.5t-37.5 14.5t-15.5 38.5zM607 319q0 -34 17.5 -58.5t45.5 -37.5q-33 -13 -55.5 -40
t-22.5 -69q0 -36 21 -64t55 -43.5t74 -15.5t74 15.5t54.5 43.5t20.5 64q0 42 -23 69t-55 40q28 13 45.5 37.5t17.5 58.5q0 50 -39 80t-95 30q-55 0 -95 -30t-40 -80zM179 271q71 0 112.5 34.5t41.5 88.5q0 41 -22.5 67t-61.5 39q33 14 52.5 37t19.5 55q0 47 -36 81t-102 34
q-63 0 -101.5 -35t-38.5 -89h80q0 24 17 39t42 15q26 0 39.5 -13.5t13.5 -35.5q0 -25 -21.5 -43.5t-58.5 -18.5v-13v-29v-17q44 0 68 -17.5t24 -47.5q0 -29 -18.5 -44t-47.5 -15t-49.5 16.5t-20.5 47.5h-86q0 -36 18.5 -67t53 -50t82.5 -19zM673 700l-520 -700h104l520 700
h-104z" />
    <glyph glyph-name="fiveeighths" unicode="&#x215d;" horiz-adv-x="943" 
d="M700 127q0 26 19.5 44t44.5 18q26 0 44.5 -18t18.5 -44q0 -31 -18.5 -47.5t-44.5 -16.5q-25 0 -44.5 16.5t-19.5 47.5zM711 310q0 24 15 39t38 15t37.5 -15t14.5 -39t-15 -38.5t-37 -14.5t-37.5 14.5t-15.5 38.5zM629 319q0 -34 17.5 -58.5t45.5 -37.5q-33 -13 -55.5 -40
t-22.5 -69q0 -36 21 -64t55 -43.5t74 -15.5t74 15.5t54.5 43.5t20.5 64q0 42 -23 69t-55 40q28 13 45.5 37.5t17.5 58.5q0 50 -39 80t-95 30q-55 0 -95 -30t-40 -80zM351 413q0 65 -38 102t-89 37q-19 0 -36.5 -3.5t-34.5 -11.5l26 86h165v75h-229l-58 -237q32 18 60.5 24
t54.5 6q34 0 59.5 -17.5t25.5 -52.5q0 -34 -22.5 -52.5t-62.5 -18.5q-26 0 -54.5 15t-51.5 38l-40 -68q27 -26 65.5 -45t96.5 -19q41 0 78 15t61 46.5t24 80.5zM694 700l-520 -700h105l520 700h-105z" />
    <glyph glyph-name="uni215E" unicode="&#x215e;" horiz-adv-x="833" 
d="M580 700l-520 -700h105l520 700h-105zM25 619h201l-167 -339h92l202 420h-328v-81zM519 319q0 -34 17.5 -58.5t45.5 -37.5q-33 -13 -55.5 -40t-22.5 -69q0 -36 21 -64t55 -43.5t74 -15.5t74 15.5t54.5 43.5t20.5 64q0 42 -23 69t-55 40q28 13 45.5 37.5t17.5 58.5
q0 50 -39 80t-95 30q-55 0 -95 -30t-40 -80zM601 310q0 24 15 39t38 15t37.5 -15t14.5 -39t-15 -38.5t-37 -14.5t-37.5 14.5t-15.5 38.5zM590 127q0 26 19.5 44t44.5 18q26 0 44.5 -18t18.5 -44q0 -31 -18.5 -47.5t-44.5 -16.5q-25 0 -44.5 16.5t-19.5 47.5z" />
    <glyph glyph-name="minus" unicode="&#x2212;" horiz-adv-x="592" 
d="M61 180h470v115h-470v-115z" />
    <glyph glyph-name="uni2219" unicode="&#x2219;" horiz-adv-x="315" 
d="M75 435q0 -34 23.5 -58t59.5 -24t59.5 24t23.5 58t-23.5 57.5t-59.5 23.5t-59.5 -23.5t-23.5 -57.5z" />
    <glyph glyph-name="uniFF10" unicode="&#xff10;" horiz-adv-x="615" 
d="M165 350q0 71 17.5 124t49.5 82.5t75 29.5t75 -29.5t49.5 -82.5t17.5 -124q0 -70 -17.5 -123.5t-49.5 -83t-75 -29.5t-75 29.5t-49.5 83t-17.5 123.5zM25 350q0 -111 35.5 -192t99.5 -125.5t147 -44.5q86 0 149.5 44.5t98 125.5t34.5 192t-34.5 192.5t-98 125.5
t-149.5 44q-83 0 -147 -44t-99.5 -125.5t-35.5 -192.5z" />
    <glyph glyph-name="uniFF11" unicode="&#xff11;" horiz-adv-x="615" 
d="M111 517l168 43v-560h140v712l-308 -66v-129z" />
    <glyph glyph-name="uniFF12" unicode="&#xff12;" horiz-adv-x="615" 
d="M17 0h564v133h-292l181 170q44 40 71 86.5t27 101.5q0 39 -15 78.5t-46 72t-77.5 52t-109.5 19.5q-85 0 -145 -35.5t-91.5 -95.5t-31.5 -135h142q0 63 34 101.5t88 38.5q53 0 78 -30.5t25 -68.5q0 -42 -22.5 -77.5t-62.5 -78.5z" />
    <glyph glyph-name="uniFF13" unicode="&#xff13;" horiz-adv-x="615" 
d="M311 -14q79 0 137 25.5t89.5 71.5t31.5 106q0 70 -38.5 113.5t-103.5 64.5q56 22 89 60.5t33 92.5q0 53 -27.5 96.5t-79 69.5t-124.5 26q-69 0 -121.5 -27t-82 -74t-29.5 -107h134q0 39 28.5 64.5t70.5 25.5q44 0 65.5 -23t21.5 -59q0 -41 -36 -71t-97 -30v-23v-47v-29
q74 0 113.5 -29t39.5 -79q0 -49 -30.5 -74t-79.5 -25t-83 27.5t-34 78.5h-143q0 -60 31 -111t88.5 -82.5t136.5 -31.5z" />
    <glyph glyph-name="uniFF14" unicode="&#xff14;" horiz-adv-x="615" 
d="M356 237h-155l155 234v-234zM492 129h101v123h-101v448h-99l-379 -571h329v-129h149v129z" />
    <glyph glyph-name="uniFF15" unicode="&#xff15;" horiz-adv-x="615" 
d="M573 226q0 72 -29 123.5t-77 79.5t-105 28q-32 0 -62 -6.5t-58 -20.5l45 144h276v126h-383l-96 -395q53 30 101 40t91 10q38 0 70 -13t51.5 -39t19.5 -64q0 -57 -37 -87.5t-104 -30.5q-44 0 -92 24.5t-85 62.5l-68 -113q44 -43 109 -75t162 -32q51 0 99 14.5t87 43.5
t62 74t23 106z" />
    <glyph glyph-name="uniFF16" unicode="&#xff16;" horiz-adv-x="615" 
d="M178 241q0 59 37 96t92 37q56 0 92.5 -37t36.5 -96q0 -58 -36.5 -94.5t-92.5 -36.5q-55 0 -92 36.5t-37 94.5zM318 698l-211 -277q-30 -38 -50.5 -82.5t-20.5 -97.5q0 -82 36.5 -139t98 -86.5t136.5 -29.5t136.5 29.5t98 86.5t36.5 139q0 69 -31 120t-79.5 79t-102.5 28
q-20 0 -36.5 -2t-31.5 -8l204 240h-183z" />
    <glyph glyph-name="uniFF17" unicode="&#xff17;" horiz-adv-x="615" 
d="M44 565h335l-280 -565h155l338 700h-548v-135z" />
    <glyph glyph-name="uniFF18" unicode="&#xff18;" horiz-adv-x="615" 
d="M93 531q0 -58 29 -98t75 -62q-54 -22 -91.5 -66.5t-37.5 -114.5q0 -61 34 -107t90.5 -71.5t123.5 -25.5t123.5 25.5t91 71.5t34.5 107q0 70 -38 114.5t-92 66.5q46 22 75.5 62t29.5 98q0 56 -30.5 97t-81 63.5t-112.5 22.5q-61 0 -112 -22.5t-81 -63.5t-30 -97zM229 517
q0 40 24 64.5t63 24.5t63.5 -24.5t24.5 -64.5t-25.5 -64.5t-62.5 -24.5t-62 24.5t-25 64.5zM210 211q0 44 31.5 74t74.5 30q29 0 53 -14t39 -37.5t15 -52.5q0 -51 -32 -78.5t-75 -27.5t-74.5 27.5t-31.5 78.5z" />
    <glyph glyph-name="uniFF19" unicode="&#xff19;" horiz-adv-x="615" 
d="M436 459q0 -58 -36.5 -95.5t-92.5 -37.5q-55 0 -92 37.5t-37 95.5q0 59 37 95t92 36q56 0 92.5 -36t36.5 -95zM296 2l212 277q30 38 50 83t20 97q0 82 -36.5 139t-98 86.5t-136.5 29.5t-136.5 -29.5t-98 -86.5t-36.5 -139q0 -69 31 -120t80.5 -79t102.5 -28q20 0 36.5 2
t31.5 8l-205 -240h183z" />
    <glyph glyph-name="adieresis.alt" horiz-adv-x="500" 
d="M50 -200h400v1000h-400v-1000zM100 -150v900h300v-900h-300z" />
    <glyph glyph-name="uni00E2.alt" 
d="M33 230q0 -76 31 -130t81.5 -82t108.5 -28q51 0 92.5 23t67.5 66v-79h128v460h-128v-79q-26 43 -67.5 66t-92.5 23q-58 0 -108.5 -28t-81.5 -81.5t-31 -130.5zM169 230q0 62 37 97t87 35q29 0 56 -15.5t44.5 -45t17.5 -71.5t-17.5 -71.5t-44.5 -45t-56 -15.5
q-50 0 -87 35.5t-37 96.5zM305 619l97 -89l89 62l-186 140l-186 -140l89 -62z" />
    <glyph glyph-name="uni0105.alt" 
d="M169 230q0 62 37 97t87 35q29 0 56 -15.5t44.5 -45t17.5 -71.5t-17.5 -71.5t-44.5 -45t-56 -15.5q-50 0 -87 35.5t-37 96.5zM525 -117q-10 -10 -21.5 -15t-28.5 -5q-39 0 -39 41q0 25 22.5 51t61.5 45h22v460h-128v-79q-26 43 -67.5 66t-92.5 23q-58 0 -108.5 -28
t-81.5 -81.5t-31 -130.5q0 -76 31 -130t81.5 -82t108.5 -28q51 0 92.5 23t67.5 66v-79h20q-38 -24 -65 -53.5t-27 -66.5q0 -47 33 -73.5t86 -26.5q39 0 62.5 12.5t34.5 27.5z" />
    <glyph glyph-name="uni0101.alt" 
d="M33 230q0 -76 31 -130t81.5 -82t108.5 -28q51 0 92.5 23t67.5 66v-79h128v460h-128v-79q-26 43 -67.5 66t-92.5 23q-58 0 -108.5 -28t-81.5 -81.5t-31 -130.5zM169 230q0 62 37 97t87 35q29 0 56 -15.5t44.5 -45t17.5 -71.5t-17.5 -71.5t-44.5 -45t-56 -15.5
q-50 0 -87 35.5t-37 96.5zM117 530h365v115h-365v-115z" />
    <glyph glyph-name="uni00E3.alt" 
d="M33 230q0 -76 31 -130t81.5 -82t108.5 -28q51 0 92.5 23t67.5 66v-79h128v460h-128v-79q-26 43 -67.5 66t-92.5 23q-58 0 -108.5 -28t-81.5 -81.5t-31 -130.5zM169 230q0 62 37 97t87 35q29 0 56 -15.5t44.5 -45t17.5 -71.5t-17.5 -71.5t-44.5 -45t-56 -15.5
q-50 0 -87 35.5t-37 96.5zM122 588l67 -55q0 8 3.5 20t14 21.5t29.5 9.5q24 0 44.5 -13t42 -25.5t48.5 -12.5q30 0 55 12.5t43.5 31.5t26.5 37l-63 65q-15 -24 -30.5 -37.5t-32.5 -13.5q-21 0 -35.5 7.5t-27.5 17.5t-29 17.5t-41 7.5q-43 0 -75 -26.5t-40 -63.5z" />
    <glyph glyph-name="uni0103.alt" 
d="M33 230q0 -76 31 -130t81.5 -82t108.5 -28q51 0 92.5 23t67.5 66v-79h128v460h-128v-79q-26 43 -67.5 66t-92.5 23q-58 0 -108.5 -28t-81.5 -81.5t-31 -130.5zM169 230q0 62 37 97t87 35q29 0 56 -15.5t44.5 -45t17.5 -71.5t-17.5 -71.5t-44.5 -45t-56 -15.5
q-50 0 -87 35.5t-37 96.5zM127 675q0 -39 18.5 -72t55 -53t88.5 -20q53 0 89 20t55 53t19 72h-91q0 -25 -18 -44.5t-54 -19.5t-53.5 19.5t-17.5 44.5h-91z" />
    <glyph glyph-name="uni00E1.ss01" 
d="M33 230q0 -76 31 -130t81.5 -82t108.5 -28q51 0 92.5 23t67.5 66v-79h128v460h-128v-79q-26 43 -67.5 66t-92.5 23q-58 0 -108.5 -28t-81.5 -81.5t-31 -130.5zM169 230q0 62 37 97t87 35q29 0 56 -15.5t44.5 -45t17.5 -71.5t-17.5 -71.5t-44.5 -45t-56 -15.5
q-50 0 -87 35.5t-37 96.5zM433 680l-104 49l-150 -160l74 -39z" />
    <glyph glyph-name="aring.ss01" 
d="M33 230q0 -76 31 -130t81.5 -82t108.5 -28q51 0 92.5 23t67.5 66v-79h128v460h-128v-79q-26 43 -67.5 66t-92.5 23q-58 0 -108.5 -28t-81.5 -81.5t-31 -130.5zM169 230q0 62 37 97t87 35q29 0 56 -15.5t44.5 -45t17.5 -71.5t-17.5 -71.5t-44.5 -45t-56 -15.5
q-50 0 -87 35.5t-37 96.5zM182 641q0 -49 35 -80t83 -31t83.5 31t35.5 80q0 50 -35.5 80.5t-83.5 30.5t-83 -30.5t-35 -80.5zM253 641q0 23 14 36.5t33 13.5t33.5 -13.5t14.5 -36.5t-14.5 -36t-33.5 -13t-33 13t-14 36z" />
    <glyph glyph-name="uni00E0.ss01" 
d="M33 230q0 -76 31 -130t81.5 -82t108.5 -28q51 0 92.5 23t67.5 66v-79h128v460h-128v-79q-26 43 -67.5 66t-92.5 23q-58 0 -108.5 -28t-81.5 -81.5t-31 -130.5zM169 230q0 62 37 97t87 35q29 0 56 -15.5t44.5 -45t17.5 -71.5t-17.5 -71.5t-44.5 -45t-56 -15.5
q-50 0 -87 35.5t-37 96.5zM126 680l180 -150l74 39l-150 160z" />
    <glyph glyph-name="a.ss01" 
d="M33 230q0 -76 31 -130t81.5 -82t108.5 -28q51 0 92.5 23t67.5 66v-79h128v460h-128v-79q-26 43 -67.5 66t-92.5 23q-58 0 -108.5 -28t-81.5 -81.5t-31 -130.5zM169 230q0 62 37 97t87 35q29 0 56 -15.5t44.5 -45t17.5 -71.5t-17.5 -71.5t-44.5 -45t-56 -15.5
q-50 0 -87 35.5t-37 96.5z" />
    <glyph glyph-name="uni00E4.ss01" 
d="M33 230q0 -76 31 -130t81.5 -82t108.5 -28q51 0 92.5 23t67.5 66v-79h128v460h-128v-79q-26 43 -67.5 66t-92.5 23q-58 0 -108.5 -28t-81.5 -81.5t-31 -130.5zM169 230q0 62 37 97t87 35q29 0 56 -15.5t44.5 -45t17.5 -71.5t-17.5 -71.5t-44.5 -45t-56 -15.5
q-50 0 -87 35.5t-37 96.5zM338 604q0 -32 23 -53t55 -21t55 21t23 53t-23 53t-55 21t-55 -21t-23 -53zM107 604q0 -32 23 -53t55 -21t55.5 21t23.5 53t-23.5 53t-55.5 21t-55 -21t-23 -53z" />
    </font>
</defs>
</svg>
